BT探索

 找回密码
 注册
查看: 250|回复: 1

[HDR] 虎胆龙威.Die.Hard.1988.2160p.BluRay.x265.10bit.HDR.DTS-HD.MA.5.1.中文字幕.33.39G

[复制链接]

3万

主题

4万

帖子

13万

影币

管理员

Rank: 8Rank: 8Rank: 8Rank: 8Rank: 8Rank: 8Rank: 8Rank: 8

积分
130621
注册时间
2010-9-1
最后登录
2018-8-15

Medal No.1Medal No.2Medal No.3Medal No.4Medal No.5Medal No.6Medal No.7Medal No.8Medal No.9Medal No.10

发表于 2018-5-11 08:59:45 | 显示全部楼层 |阅读模式
海报


导演: 约翰·麦克蒂尔南
编剧: 杰布·斯图尔特 / 罗德里戈·索普 / 斯蒂芬·E.德·索萨
主演: 布鲁斯·威利斯 / 艾伦·瑞克曼 / 邦妮·比蒂丽娅 / 亚历山大·乔杜诺夫 / 威廉·阿瑟东 / 哈特·巴克纳 / 詹姆斯·繁田
类型: 动作 / 惊悚 / 犯罪
制片国家/地区: 美国
语言: 英语 / 德语 / 意大利语
上映日期: 1988-07-20(美国)
片长: 132分钟
又名: 终极警探(台) / Piège de cristal / Stirb langsam
IMDb链接: tt0095016

虎胆龙威的剧情简介 · · · · · ·
  警探约翰•麦卡伦(布鲁斯•威利斯 饰)从纽约来到洛杉矶,见他分别已有半年之久的妻子霍莉(邦尼•彼地丽娅 饰)。他被邀请参加在一栋大厦的30层举行的圣诞晚会。然而一群匪徒却打起了大厦金库中存有的六亿多元公债券的主意。他们封锁了大楼,将参加晚会的人扣作人质。麦卡伦侥幸逃脱,只身与匪徒们展开了激烈的斗争......

虎胆龙威的获奖情况
第61届奥斯卡金像奖 最佳剪辑(提名) 弗兰克·J·乌里奥斯特 / John F. Link
第13届日本电影学院奖 最佳外语片
第14届报知映画赏 海外作品奖 约翰·麦克蒂尔南

截图




Video
ID                                       : 1
Format                                   : HEVC
Format/Info                              : High Efficiency Video Coding
Format profile                           : Main 10@L5.1@High
Codec ID                                 : V_MPEGH/ISO/HEVC
Duration                                 : 2 h 12 min
Bit rate                                 : 31.4 Mb/s
Width                                    : 3 840 pixels
Height                                   : 1 606 pixels
Display aspect ratio                     : 2.40:1
Frame rate mode                          : Constant
Frame rate                               : 23.976 (24000/1001) FPS
Color space                              : YUV
Chroma subsampling                       : 4:2:0 (Type 2)
Bit depth                                : 10 bits
Bits/(Pixel*Frame)                       : 0.213
Stream size                              : 29.0 GiB (87%)
Title                                    : Die.Hard.1988.2160p.BluRay.x265.10bit.HDR.DTS-HD.MA.5.1-SWTYBLZ
Writing library                          : x265 2.5+4-b4a5bcfe29c7:[Windows][GCC 4.9.3][64 bit] 10bit
Encoding settings                        : cpuid=1173503 / frame-threads=16 / numa-pools=24,24,24,24 / wpp / no-pmode / no-pme / no-psnr / no-ssim / log-level=2 / input-csp=1 / input-res=3840x1606 / interlace=0 / total-frames=0 / level-idc=51 / high-tier=1 / uhd-bd=0 / ref=3 / no-allow-non-conformance / repeat-headers / annexb / aud / hrd / info / hash=0 / no-temporal-layers / no-open-gop / min-keyint=1 / keyint=24 / bframes=4 / b-adapt=2 / b-pyramid / bframe-bias=0 / rc-lookahead=25 / lookahead-slices=4 / scenecut=40 / no-intra-refresh / ctu=64 / min-cu-size=8 / no-rect / no-amp / max-tu-size=32 / tu-inter-depth=1 / tu-intra-depth=1 / limit-tu=0 / rdoq-level=0 / dynamic-rd=0.00 / no-ssim-rd / signhide / no-tskip / nr-intra=0 / nr-inter=0 / no-constrained-intra / strong-intra-smoothing / max-merge=2 / limit-refs=3 / no-limit-modes / me=1 / subme=2 / merange=57 / temporal-mvp / weightp / no-weightb / no-analyze-src-pics / deblock=0:0 / no-sao / no-sao-non-deblock / rd=3 / no-early-skip / rskip / no-fast-intra / no-tskip-fast / no-cu-lossless / no-b-intra / rdpenalty=0 / psy-rd=2.00 / psy-rdoq=0.00 / no-rd-refine / analysis-reuse-mode=0 / no-lossless / cbqpoffs=0 / crqpoffs=0 / rc=crf / crf=16.0 / qcomp=0.60 / qpstep=4 / stats-write=0 / stats-read=0 / vbv-maxrate=160000 / vbv-bufsize=160000 / vbv-init=0.9 / crf-max=0.0 / crf-min=0.0 / ipratio=1.40 / pbratio=1.30 / aq-mode=1 / aq-strength=1.00 / cutree / zone-count=0 / no-strict-cbr / qg-size=32 / no-rc-grain / qpmax=69 / qpmin=0 / no-const-vbv / sar=1 / overscan=0 / videoformat=5 / range=0 / colorprim=9 / transfer=16 / colormatrix=9 / chromaloc=1 / chromaloc-top=2 / chromaloc-bottom=2 / display-window=0 / master-display=G(13250,34500)B(7500,3000)R(34000,16000)WP(15635,16450)L(10000000,50) / max-cll=0,0 / min-luma=0 / max-luma=1023 / log2-max-poc-lsb=8 / vui-timing-info / vui-hrd-info / slices=1 / opt-qp-pps / opt-ref-list-length-pps / no-multi-pass-opt-rps / scenecut-bias=0.05 / no-opt-cu-delta-qp / no-aq-motion / hdr / hdr-opt / no-dhdr10-opt / analysis-reuse-level=5 / scale-factor=0 / refine-intra=0 / refine-inter=0 / refine-mv=0 / no-limit-sao / ctu-info=0
Default                                  : Yes
Forced                                   : No
Color range                              : Limited
Color primaries                          : BT.2020
Transfer characteristics                 : PQ
Matrix coefficients                      : BT.2020 non-constant
Mastering display color primaries        : Display P3
Mastering display luminance              : min: 0.0050 cd/m2, max: 1000 cd/m2

Audio #1
ID                                       : 2
Format                                   : DTS
Format/Info                              : Digital Theater Systems
Format profile                           : MA / Core
Codec ID                                 : A_DTS
Duration                                 : 2 h 12 min
Bit rate mode                            : Variable / Constant
Bit rate                                 : 3 672 kb/s / 1 509 kb/s
Channel(s)                               : 6 channels
Channel positions                        : Front: L C R, Side: L R, LFE
Sampling rate                            : 48.0 kHz
Frame rate                               : 93.750 FPS (512 SPF)
Bit depth                                : 24 bits
Compression mode                         : Lossless / Lossy
Stream size                              : 3.39 GiB (10%)
Title                                    : Die.Hard.1988.2160p.BluRay.REMUX.HEVC.DTS-HD.MA.5.1-FGT
Language                                 : English
Default                                  : Yes
Forced                                   : No

Audio #2
ID                                       : 3
Format                                   : AC-3
Format/Info                              : Audio Coding 3
Codec ID                                 : A_AC3
Duration                                 : 2 h 12 min
Bit rate mode                            : Constant
Bit rate                                 : 640 kb/s
Channel(s)                               : 6 channels
Channel positions                        : Front: L C R, Side: L R, LFE
Sampling rate                            : 48.0 kHz
Frame rate                               : 31.250 FPS (1536 SPF)
Bit depth                                : 16 bits
Compression mode                         : Lossy
Stream size                              : 605 MiB (2%)
Title                                    : Die.Hard.1988.2160p.BluRay.x265.10bit.HDR.DTS-HD.MA.5.1-SWTYBLZ
Language                                 : English
Service kind                             : Complete Main
Default                                  : No
Forced                                   : No

Text #1
ID                                       : 4
Format                                   : UTF-8
Codec ID                                 : S_TEXT/UTF8
Codec ID/Info                            : UTF-8 Plain Text
Duration                                 : 2 h 6 min
Bit rate                                 : 48 b/s
Count of elements                        : 1291
Stream size                              : 45.0 KiB (0%)
Title                                    : English-SRT
Language                                 : English
Default                                  : Yes
Forced                                   : No

Text #2
ID                                       : 5
Format                                   : PGS
Muxing mode                              : zlib
Codec ID                                 : S_HDMV/PGS
Codec ID/Info                            : Picture based subtitle format used on BDs/HD-DVDs
Duration                                 : 2 h 7 min
Bit rate                                 : 29.7 kb/s
Count of elements                        : 2802
Stream size                              : 27.0 MiB (0%)
Title                                    : English-PGS
Language                                 : English
Default                                  : No
Forced                                   : No

Text #3
ID                                       : 6
Format                                   : PGS
Muxing mode                              : zlib
Codec ID                                 : S_HDMV/PGS
Codec ID/Info                            : Picture based subtitle format used on BDs/HD-DVDs
Duration                                 : 2 h 11 min
Bit rate                                 : 41.6 kb/s
Count of elements                        : 2702
Stream size                              : 39.0 MiB (0%)
Title                                    : Spanish-PGS
Language                                 : Spanish
Default                                  : No
Forced                                   : No

Text #4
ID                                       : 7
Format                                   : PGS
Muxing mode                              : zlib
Codec ID                                 : S_HDMV/PGS
Codec ID/Info                            : Picture based subtitle format used on BDs/HD-DVDs
Duration                                 : 2 h 11 min
Bit rate                                 : 40.8 kb/s
Count of elements                        : 2084
Stream size                              : 38.3 MiB (0%)
Title                                    : French-PGS
Language                                 : French
Default                                  : No
Forced                                   : No

Text #5
ID                                       : 8
Format                                   : PGS
Muxing mode                              : zlib
Codec ID                                 : S_HDMV/PGS
Codec ID/Info                            : Picture based subtitle format used on BDs/HD-DVDs
Duration                                 : 2 h 11 min
Bit rate                                 : 47.4 kb/s
Count of elements                        : 2110
Stream size                              : 44.4 MiB (0%)
Title                                    : Spanish-PGS
Language                                 : Spanish
Default                                  : No
Forced                                   : No

Text #6
ID                                       : 9
Format                                   : PGS
Muxing mode                              : zlib
Codec ID                                 : S_HDMV/PGS
Codec ID/Info                            : Picture based subtitle format used on BDs/HD-DVDs
Duration                                 : 2 h 11 min
Bit rate                                 : 40.7 kb/s
Count of elements                        : 2054
Stream size                              : 38.1 MiB (0%)
Title                                    : Danish-PGS
Language                                 : Danish
Default                                  : No
Forced                                   : No

Text #7
ID                                       : 10
Format                                   : PGS
Muxing mode                              : zlib
Codec ID                                 : S_HDMV/PGS
Codec ID/Info                            : Picture based subtitle format used on BDs/HD-DVDs
Duration                                 : 2 h 6 min
Bit rate                                 : 38.6 kb/s
Count of elements                        : 2006
Stream size                              : 34.8 MiB (0%)
Title                                    : Dutch-PGS
Language                                 : Dutch
Default                                  : No
Forced                                   : No

Text #8
ID                                       : 11
Format                                   : PGS
Muxing mode                              : zlib
Codec ID                                 : S_HDMV/PGS
Codec ID/Info                            : Picture based subtitle format used on BDs/HD-DVDs
Duration                                 : 2 h 11 min
Bit rate                                 : 46.3 kb/s
Count of elements                        : 2024
Stream size                              : 43.5 MiB (0%)
Title                                    : Finnish-PGS
Language                                 : Finnish
Default                                  : No
Forced                                   : No

Text #9
ID                                       : 12
Format                                   : PGS
Muxing mode                              : zlib
Codec ID                                 : S_HDMV/PGS
Codec ID/Info                            : Picture based subtitle format used on BDs/HD-DVDs
Duration                                 : 2 h 11 min
Bit rate                                 : 51.5 kb/s
Count of elements                        : 2256
Stream size                              : 48.3 MiB (0%)
Title                                    : German-PGS
Language                                 : German
Default                                  : No
Forced                                   : No

Text #10
ID                                       : 13
Format                                   : PGS
Muxing mode                              : zlib
Codec ID                                 : S_HDMV/PGS
Codec ID/Info                            : Picture based subtitle format used on BDs/HD-DVDs
Duration                                 : 2 h 6 min
Bit rate                                 : 47.1 kb/s
Count of elements                        : 2070
Stream size                              : 42.4 MiB (0%)
Title                                    : Italian-PGS
Language                                 : Italian
Default                                  : No
Forced                                   : No

Text #11
ID                                       : 14
Format                                   : PGS
Muxing mode                              : zlib
Codec ID                                 : S_HDMV/PGS
Codec ID/Info                            : Picture based subtitle format used on BDs/HD-DVDs
Duration                                 : 2 h 11 min
Bit rate                                 : 44.2 kb/s
Count of elements                        : 1978
Stream size                              : 41.5 MiB (0%)
Title                                    : Norwegian-PGS
Language                                 : Norwegian
Default                                  : No
Forced                                   : No

Text #12
ID                                       : 15
Format                                   : PGS
Muxing mode                              : zlib
Codec ID                                 : S_HDMV/PGS
Codec ID/Info                            : Picture based subtitle format used on BDs/HD-DVDs
Duration                                 : 2 h 6 min
Bit rate                                 : 38.5 kb/s
Count of elements                        : 1996
Stream size                              : 34.7 MiB (0%)
Title                                    : Swedish-PGS
Language                                 : Swedish
Default                                  : No
Forced                                   : No

Text #13
ID                                       : 16
Format                                   : PGS
Muxing mode                              : zlib
Codec ID                                 : S_HDMV/PGS
Codec ID/Info                            : Picture based subtitle format used on BDs/HD-DVDs
Duration                                 : 2 h 6 min
Bit rate                                 : 26.6 kb/s
Count of elements                        : 2850
Stream size                              : 24.0 MiB (0%)
Title                                    : Chinese-PGS
Language                                 : Chinese
Default                                  : No
Forced                                   : No

Text #14
ID                                       : 17
Format                                   : PGS
Muxing mode                              : zlib
Codec ID                                 : S_HDMV/PGS
Codec ID/Info                            : Picture based subtitle format used on BDs/HD-DVDs
Duration                                 : 2 h 11 min
Bit rate                                 : 48.3 kb/s
Count of elements                        : 2714
Stream size                              : 45.3 MiB (0%)
Title                                    : Czech-PGS
Language                                 : Czech
Default                                  : No
Forced                                   : No

Text #15
ID                                       : 18
Format                                   : PGS
Muxing mode                              : zlib
Codec ID                                 : S_HDMV/PGS
Codec ID/Info                            : Picture based subtitle format used on BDs/HD-DVDs
Duration                                 : 2 h 6 min
Bit rate                                 : 22.8 kb/s
Count of elements                        : 2885
Stream size                              : 20.6 MiB (0%)
Title                                    : Chinese-PGS
Language                                 : Chinese
Default                                  : No
Forced                                   : No

Text #16
ID                                       : 19
Format                                   : PGS
Muxing mode                              : zlib
Codec ID                                 : S_HDMV/PGS
Codec ID/Info                            : Picture based subtitle format used on BDs/HD-DVDs
Duration                                 : 2 h 11 min
Bit rate                                 : 45.8 kb/s
Count of elements                        : 2802
Stream size                              : 43.0 MiB (0%)
Title                                    : Polish-PGS
Language                                 : Polish
Default                                  : No
Forced                                   : No

Text #17
ID                                       : 20
Format                                   : PGS
Muxing mode                              : zlib
Codec ID                                 : S_HDMV/PGS
Codec ID/Info                            : Picture based subtitle format used on BDs/HD-DVDs
Duration                                 : 2 h 6 min
Bit rate                                 : 16.0 kb/s
Count of elements                        : 2208
Stream size                              : 14.4 MiB (0%)
Title                                    : Japnanese-PGS
Language                                 : Japanese
Default                                  : No
Forced                                   : No

Text #18
ID                                       : 21
Format                                   : PGS
Muxing mode                              : zlib
Codec ID                                 : S_HDMV/PGS
Codec ID/Info                            : Picture based subtitle format used on BDs/HD-DVDs
Duration                                 : 1 h 33 min
Bit rate                                 : 277 b/s
Count of elements                        : 38
Stream size                              : 190 KiB (0%)
Title                                    : Japnanese-PGS
Language                                 : Japanese
Default                                  : No
Forced                                   : No

Text #19
ID                                       : 22
Format                                   : PGS
Muxing mode                              : zlib
Codec ID                                 : S_HDMV/PGS
Codec ID/Info                            : Picture based subtitle format used on BDs/HD-DVDs
Duration                                 : 1 h 48 min
Bit rate                                 : 1 389 b/s
Count of elements                        : 164
Stream size                              : 1.08 MiB (0%)
Title                                    : Japnanese-PGS
Language                                 : Japanese
Default                                  : No
Forced                                   : No

Text #20
ID                                       : 23
Format                                   : PGS
Muxing mode                              : zlib
Codec ID                                 : S_HDMV/PGS
Codec ID/Info                            : Picture based subtitle format used on BDs/HD-DVDs
Duration                                 : 1 h 33 min
Bit rate                                 : 313 b/s
Count of elements                        : 42
Stream size                              : 215 KiB (0%)
Title                                    : Japnanese-PGS
Language                                 : Japanese
Default                                  : No
Forced                                   : No

Menu
00:00:00.000                             : en:Chapter 1
00:02:21.391                             : en:Chapter 2
00:03:57.779                             : en:Chapter 3
00:05:11.936                             : en:Chapter 4
00:06:09.827                             : en:Chapter 5
00:07:50.928                             : en:Chapter 6
00:11:58.134                             : en:Chapter 7
00:13:17.922                             : en:Chapter 8
00:14:03.092                             : en:Chapter 9
00:14:18.357                             : en:Chapter 10
00:16:58.308                             : en:Chapter 11
00:21:00.467                             : en:Chapter 12
00:22:41.985                             : en:Chapter 13
00:24:53.241                             : en:Chapter 14
00:26:50.317                             : en:Chapter 15
00:28:50.228                             : en:Chapter 16
00:33:24.460                             : en:Chapter 17
00:34:08.629                             : en:Chapter 18
00:35:26.415                             : en:Chapter 19
00:38:18.671                             : en:Chapter 20
00:42:33.592                             : en:Chapter 21
00:43:24.143                             : en:Chapter 22
00:45:18.424                             : en:Chapter 23
00:47:59.418                             : en:Chapter 24
00:52:39.030                             : en:Chapter 25
00:56:49.155                             : en:Chapter 26
00:57:55.221                             : en:Chapter 27
00:58:38.723                             : en:Chapter 28
01:00:49.479                             : en:Chapter 29
01:01:38.861                             : en:Chapter 30
01:04:18.396                             : en:Chapter 31
01:07:44.101                             : en:Chapter 32
01:11:58.856                             : en:Chapter 33
01:12:58.290                             : en:Chapter 34
01:19:14.750                             : en:Chapter 35
01:26:10.790                             : en:Chapter 36
01:28:49.782                             : en:Chapter 37
01:29:27.236                             : en:Chapter 38
01:30:06.943                             : en:Chapter 39
01:35:43.446                             : en:Chapter 40
01:38:57.973                             : en:Chapter 41
01:41:26.747                             : en:Chapter 42
01:45:24.609                             : en:Chapter 43
01:47:45.000                             : en:Chapter 44
01:48:10.942                             : en:Chapter 45
01:49:49.958                             : en:Chapter 46
01:51:09.412                             : en:Chapter 47
01:54:16.015                             : en:Chapter 48
01:58:22.762                             : en:Chapter 49
01:59:44.260                             : en:Chapter 50
02:02:00.604                             : en:Chapter 51
02:03:48.838                             : en:Chapter 52
02:05:13.130                             : en:Chapter 53
02:06:28.122                             : en:Chapter 54
02:07:19.048                             : en:Chapter 55

虎胆龙威.Die.Hard.1988.2160p.BluRay.x265.10bit.HDR.DTS-HD.MA.5.1.中文字幕.33.39G.torrent

84.1 KB, 下载次数: 16

虎胆龙威.Die.Hard.1988.2160p.BluRay.x265.10bit.HDR.DTS-HD.MA.5.1.中文字幕.33.39G

电影交流QQ群: 498117193

0

主题

15

帖子

25

影币

观众

Rank: 1

积分
25
注册时间
2018-5-11
最后登录
2018-8-15
发表于 2018-5-11 11:49:43 | 显示全部楼层
這片經典!
多謝大大分享~~
电影交流QQ群: 498117193
您需要登录后才可以回帖 登录 | 注册

本版积分规则

BT探索

GMT+8, 2018-8-16 03:22

Powered by Discuz! X3.2

© 2001-2013 Comsenz Inc.

快速回复 返回顶部 返回列表