BT探索

 找回密码
 注册
查看: 470|回复: 0

[欧美] 复仇.Revenge.2017.1080p.AMZN.WEBRip.DDP5.1.x264-NTG.5.78 GB

[复制链接]

3万

主题

4万

帖子

13万

影币

管理员

Rank: 8Rank: 8Rank: 8Rank: 8Rank: 8Rank: 8Rank: 8Rank: 8

积分
130621
注册时间
2010-9-1
最后登录
2018-8-15

Medal No.1Medal No.2Medal No.3Medal No.4Medal No.5Medal No.6Medal No.7Medal No.8Medal No.9Medal No.10

发表于 2018-5-12 10:25:43 | 显示全部楼层 |阅读模式
海报


导演: Coralie Fargeat
编剧: Coralie Fargeat
主演: 玛蒂尔达·鲁茨 / 纪尧姆·布谢德 / Kevin Janssens / Vincent Colombe
类型: 动作 / 惊悚
制片国家/地区: 法国
语言: 英语 / 法语
上映日期: 2017-09-10(多伦多电影节) / 2018-02-07(法国)
片长: 108分钟
又名: 烈女復仇(港) / 血色攞命花(港)
IMDb链接: tt6738136


复仇的剧情简介 · · · · · ·
  Never take your mistress on an annual guys' getaway, especially one devoted to hunting - a violent lesson for three wealthy married men.



截图
[size=10.6667px]
[size=10.6667px]
[size=10.6667px]


Video
ID                                       : 1
Format                                   : AVC
Format/Info                              : Advanced Video Codec
Format profile                           : High@L4
Format settings                          : CABAC / 4 Ref Frames
Format settings, CABAC                   : Yes
Format settings, ReFrames                : 4 frames
Codec ID                                 : V_MPEG4/ISO/AVC
Duration                                 : 1 h 48 min
Bit rate mode                            : Variable
Bit rate                                 : 6 988 kb/s
Maximum bit rate                         : 15.0 Mb/s
Width                                    : 1 920 pixels
Height                                   : 800 pixels
Display aspect ratio                     : 2.40:1
Frame rate mode                          : Constant
Frame rate                               : 23.976 (24000/1001) FPS
Color space                              : YUV
Chroma subsampling                       : 4:2:0
Bit depth                                : 8 bits
Scan type                                : Progressive
Bits/(Pixel*Frame)                       : 0.190
Stream size                              : 5.30 GiB (92%)
Default                                  : Yes
Forced                                   : No
Color range                              : Limited
Color primaries                          : BT.709
Transfer characteristics                 : BT.709
Matrix coefficients                      : BT.709

Audio
ID                                       : 2
Format                                   : E-AC-3
Format/Info                              : Enhanced Audio Coding 3
Codec ID                                 : A_EAC3
Duration                                 : 1 h 48 min
Bit rate mode                            : Constant
Bit rate                                 : 640 kb/s
Channel(s)                               : 6 channels
Channel positions                        : Front: L C R, Side: L R, LFE
Sampling rate                            : 48.0 kHz
Frame rate                               : 187.500 FPS (256 SPF)
Compression mode                         : Lossy
Stream size                              : 497 MiB (8%)
Language                                 : French
Service kind                             : Complete Main
Default                                  : Yes
Forced                                   : No

Text #1
ID                                       : 3
Format                                   : UTF-8
Codec ID                                 : S_TEXT/UTF8
Codec ID/Info                            : UTF-8 Plain Text
Duration                                 : 1 h 40 min
Bit rate                                 : 8 b/s
Count of elements                        : 212
Stream size                              : 6.63 KiB (0%)
Language                                 : English
Default                                  : No
Forced                                   : No

Text #2
ID                                       : 4
Format                                   : UTF-8
Codec ID                                 : S_TEXT/UTF8
Codec ID/Info                            : UTF-8 Plain Text
Duration                                 : 1 h 43 min
Bit rate                                 : 13 b/s
Count of elements                        : 461
Stream size                              : 10.6 KiB (0%)
Title                                    : SDH
Language                                 : English
Default                                  : No
Forced                                   : No



Revenge.2017.1080p.AMZN.WEBRip.DDP5.1.x264.torrent

58.35 KB, 下载次数: 51

电影交流QQ群: 498117193
您需要登录后才可以回帖 登录 | 注册

本版积分规则

BT探索

GMT+8, 2018-8-16 03:21

Powered by Discuz! X3.2

© 2001-2013 Comsenz Inc.

快速回复 返回顶部 返回列表