BT探索

 找回密码
 注册
搜索
查看: 259|回复: 1

[欧美] 终端.Terminal.2018.1080p.AMZN.WEBRip.DDP5.1.x264-NTG.6.77 GB

[复制链接]

3万

主题

4万

帖子

11万

影币

管理员

Rank: 8Rank: 8Rank: 8Rank: 8Rank: 8Rank: 8Rank: 8Rank: 8

积分
116953
注册时间
2010-9-1
最后登录
2018-5-28

Medal No.1Medal No.2Medal No.3Medal No.4Medal No.5Medal No.6Medal No.7Medal No.8Medal No.9Medal No.10

发表于 2018-5-12 10:29:11 | 显示全部楼层 |阅读模式
海报


导演: Vaughn Stein
编剧: Vaughn Stein
主演: 玛格特·罗比 / 西蒙·佩吉 / 麦克·梅尔斯 / 马克斯·艾恩斯 / 德克斯特·弗莱彻
类型: 剧情 / 惊悚
制片国家/地区: 英国
上映日期: 2018-05-11(美国)
片长: 90分钟
又名: 刺杀终点战(台) / End of the Line
IMDb链接: tt4463816

终端的剧情简介 · · · · · ·
  故事讲述两位职业杀手被神秘雇主高薪雇佣去执行一项危险任务。在这一过程中,他们结识了一个叫安妮(玛格特·罗比饰)的女人,引发了无法预料的结局。

截图





Video
ID                                       : 1
Format                                   : AVC
Format/Info                              : Advanced Video Codec
Format profile                           : High@L4
Format settings                          : CABAC / 4 Ref Frames
Format settings, CABAC                   : Yes
Format settings, ReFrames                : 4 frames
Codec ID                                 : V_MPEG4/ISO/AVC
Duration                                 : 1 h 35 min
Bit rate mode                            : Variable
Bit rate                                 : 9 498 kb/s
Maximum bit rate                         : 15.0 Mb/s
Width                                    : 1 920 pixels
Height                                   : 1 080 pixels
Display aspect ratio                     : 16:9
Frame rate mode                          : Constant
Frame rate                               : 23.976 (24000/1001) FPS
Color space                              : YUV
Chroma subsampling                       : 4:2:0
Bit depth                                : 8 bits
Scan type                                : Progressive
Bits/(Pixel*Frame)                       : 0.191
Stream size                              : 6.34 GiB (94%)
Default                                  : Yes
Forced                                   : No
Color range                              : Limited
Color primaries                          : BT.709
Transfer characteristics                 : BT.709
Matrix coefficients                      : BT.709

Audio
ID                                       : 2
Format                                   : E-AC-3
Format/Info                              : Enhanced Audio Coding 3
Codec ID                                 : A_EAC3
Duration                                 : 1 h 35 min
Bit rate mode                            : Constant
Bit rate                                 : 640 kb/s
Channel(s)                               : 6 channels
Channel positions                        : Front: L C R, Side: L R, LFE
Sampling rate                            : 48.0 kHz
Frame rate                               : 187.500 FPS (256 SPF)
Compression mode                         : Lossy
Stream size                              : 437 MiB (6%)
Language                                 : English
Service kind                             : Complete Main
Default                                  : Yes
Forced                                   : No

Text #1
ID                                       : 3
Format                                   : UTF-8
Codec ID                                 : S_TEXT/UTF8
Codec ID/Info                            : UTF-8 Plain Text
Duration                                 : 1 h 33 min
Bit rate                                 : 67 b/s
Count of elements                        : 1557
Stream size                              : 46.8 KiB (0%)
Language                                 : English
Default                                  : No
Forced                                   : No

Text #2
ID                                       : 4
Format                                   : UTF-8
Codec ID                                 : S_TEXT/UTF8
Codec ID/Info                            : UTF-8 Plain Text
Duration                                 : 1 h 34 min
Bit rate                                 : 70 b/s
Count of elements                        : 1651
Stream size                              : 48.8 KiB (0%)
Title                                    : SDH
Language                                 : English
Default                                  : No
Forced                                   : No

Text #3
ID                                       : 5
Format                                   : UTF-8
Codec ID                                 : S_TEXT/UTF8
Codec ID/Info                            : UTF-8 Plain Text
Duration                                 : 1 h 31 min
Bit rate                                 : 60 b/s
Count of elements                        : 1432
Stream size                              : 40.7 KiB (0%)
Language                                 : Spanish
Default                                  : No
Forced                                   : No


Terminal.2018.1080p.AMZN.WEBRip.DDP5.1.x264.torrent

68.19 KB, 下载次数: 49

电影交流QQ群: 498117193

0

主题

211

帖子

120

影币

影迷

Rank: 2Rank: 2

积分
120
注册时间
2011-8-25
最后登录
2018-5-22
发表于 2018-5-16 15:33:38 | 显示全部楼层
感谢楼主分享精彩好看的电影
电影交流QQ群: 498117193
您需要登录后才可以回帖 登录 | 注册

本版积分规则

小黑屋|手机版|BT探索

GMT+8, 2018-5-28 15:59

Powered by Discuz! X3.2

© 2001-2013 Comsenz Inc.

快速回复 返回顶部 返回列表