BT探索

 找回密码
 注册
搜索
查看: 109|回复: 0

[日韩] 齐木楠雄的灾难.Psychic.Kusuo.2017.JAPANESE.720p.BluRay.x264.日语简繁中字.4.00 GB

[复制链接]

3万

主题

4万

帖子

11万

影币

管理员

Rank: 8Rank: 8Rank: 8Rank: 8Rank: 8Rank: 8Rank: 8Rank: 8

积分
116953
注册时间
2010-9-1
最后登录
2018-5-28

Medal No.1Medal No.2Medal No.3Medal No.4Medal No.5Medal No.6Medal No.7Medal No.8Medal No.9Medal No.10

发表于 2018-5-12 13:19:38 | 显示全部楼层 |阅读模式
海报


导演: 福田雄一
编剧: 福田雄一
主演: 山崎贤人 / 桥本环奈 / 新井浩文 / 吉泽亮 / 笠原秀幸 / 贺来贤人 / 室毅 / 佐藤二朗 / 田边诚一 / 内田有纪
类型: 喜剧
官方网站: saikikusuo-movie.jp
制片国家/地区: 日本
语言: 日语
上映日期: 2017-10-21(日本)
片长: 97分钟
又名: 超能力者齐木楠雄的灾难 真人版
IMDb链接: tt4773438

齐木楠雄的灾难 真人版的剧情简介 · · · · · ·
  《齐木楠雄的灾难》是根据麻生周一原作漫画改编的真人电影,由福田雄一执导并编剧。由山崎贤人主演、桥本环奈、新井浩文和吉泽亮等共同出演,于2017年10月21日在日本上映。电影《齐木楠雄的灾难》改编自麻生周一的漫画,导演福田雄一,讲述生来就有超能力的主人公高中生齐木楠雄,每天都面临着各种灾难的日常,是一部校园喜剧 。

截图




Video
ID                                       : 1
Format                                   : AVC
Format/Info                              : Advanced Video Codec
Format profile                           : High@L4.1
Format settings                          : CABAC / 9 Ref Frames
Format settings, CABAC                   : Yes
Format settings, ReFrames                : 9 frames
Codec ID                                 : V_MPEG4/ISO/AVC
Duration                                 : 1 h 37 min
Bit rate                                 : 5 250 kb/s
Width                                    : 1 280 pixels
Height                                   : 690 pixels
Display aspect ratio                     : 1.85:1
Frame rate mode                          : Constant
Frame rate                               : 23.976 (24000/1001) FPS
Color space                              : YUV
Chroma subsampling                       : 4:2:0
Bit depth                                : 8 bits
Scan type                                : Progressive
Bits/(Pixel*Frame)                       : 0.248
Stream size                              : 3.56 GiB (89%)
Writing library                          : x264 core 129 r2245+704+36 8e61944 tMod+MixAQ [8-bit@4:2:0 X86_64]
Encoding settings                        : cabac=1 / ref=9 / deblock=1:-3:-3 / analyse=0x3:0x133 / me=umh / subme=11 / psy=1 / fade_compensate=0.00 / psy_rd=1.05:0.10 / mixed_ref=1 / me_range=32 / chroma_me=1 / trellis=2 / 8x8dct=1 / cqm=0 / deadzone=21,11 / fast_pskip=0 / chroma_qp_offset=-3 / threads=18 / lookahead_threads=3 / sliced_threads=0 / nr=0 / decimate=0 / interlaced=0 / bluray_compat=0 / constrained_intra=0 / fgo=0 / bframes=10 / b_pyramid=2 / b_adapt=2 / b_bias=0 / direct=3 / weightb=1 / open_gop=0 / weightp=2 / keyint=250 / keyint_min=23 / scenecut=40 / intra_refresh=0 / rc=2pass / mbtree=0 / bitrate=5250 / ratetol=1.0 / qcomp=0.70 / qpmin=0 / qpmax=69 / qpstep=4 / cplxblur=20.0 / qblur=0.5 / ip_ratio=1.40 / pb_ratio=1.30 / aq=1 / aq-strength=0.90 / aq-sensitivity=10.00 / aq-ifactor=1.00 / aq-pfactor=1.00 / aq-bfactor=1.00 / aq2=0
Language                                 : Japanese
Default                                  : Yes
Forced                                   : No

Audio
ID                                       : 2
Format                                   : AC-3
Format/Info                              : Audio Coding 3
Codec ID                                 : A_AC3
Duration                                 : 1 h 37 min
Bit rate mode                            : Constant
Bit rate                                 : 640 kb/s
Channel(s)                               : 6 channels
Channel positions                        : Front: L C R, Side: L R, LFE
Sampling rate                            : 48.0 kHz
Frame rate                               : 31.250 FPS (1536 SPF)
Bit depth                                : 16 bits
Compression mode                         : Lossy
Stream size                              : 444 MiB (11%)
Language                                 : Japanese
Service kind                             : Complete Main
Default                                  : Yes
Forced                                   : No

Text #1
ID                                       : 3
Format                                   : ASS
Codec ID                                 : S_TEXT/ASS
Codec ID/Info                            : Advanced Sub Station Alpha
Duration                                 : 1 h 36 min
Bit rate                                 : 101 b/s
Count of elements                        : 1670
Compression mode                         : Lossless
Stream size                              : 72.0 KiB (0%)
Title                                    : Simplified
Language                                 : Chinese
Default                                  : Yes
Forced                                   : No

Text #2
ID                                       : 4
Format                                   : ASS
Codec ID                                 : S_TEXT/ASS
Codec ID/Info                            : Advanced Sub Station Alpha
Duration                                 : 1 h 36 min
Bit rate                                 : 101 b/s
Count of elements                        : 1669
Compression mode                         : Lossless
Stream size                              : 71.9 KiB (0%)
Title                                    : Traditional
Language                                 : Chinese
Default                                  : No
Forced                                   : No

Menu
00:00:00.000                             : en:00:00:00.000
00:08:23.711                             : en:00:08:23.711
00:17:44.104                             : en:00:17:44.104
00:19:00.055                             : en:00:19:00.055
00:21:42.301                             : en:00:21:42.301
00:29:54.834                             : en:00:29:54.834
00:35:21.786                             : en:00:35:21.786
00:39:01.964                             : en:00:39:01.964
00:47:37.729                             : en:00:47:37.729
00:50:45.167                             : en:00:50:45.167
00:59:31.025                             : en:00:59:31.025
01:01:29.727                             : en:01:01:29.727
01:05:56.577                             : en:01:05:56.577
01:10:44.907                             : en:01:10:44.907
01:14:57.784                             : en:01:14:57.784
01:21:35.056                             : en:01:21:35.056
01:24:21.931                             : en:01:24:21.931
01:33:17.133                             : en:01:33:17.133

齐木楠雄的灾难.Psychic.Kusuo.2017.JAPANESE.720p.BluRay.x264.日语简繁中字.4.00 GB.torrent

80.6 KB, 下载次数: 8

齐木楠雄的灾难.Psychic.Kusuo.2017.JAPANESE.720p.BluRay.x264.日语简繁中字.4.00 GB

电影交流QQ群: 498117193
您需要登录后才可以回帖 登录 | 注册

本版积分规则

小黑屋|手机版|BT探索

GMT+8, 2018-5-28 16:00

Powered by Discuz! X3.2

© 2001-2013 Comsenz Inc.

快速回复 返回顶部 返回列表