BT探索

 找回密码
 注册
查看: 370|回复: 0

[华语] 西游记女儿国.2018.CHINESE.720p.BluRay.x264.DTS-HDC.中文字幕.7.18 GB

[复制链接]

3万

主题

4万

帖子

13万

影币

管理员

Rank: 8Rank: 8Rank: 8Rank: 8Rank: 8Rank: 8Rank: 8Rank: 8

积分
131029
注册时间
2010-9-1
最后登录
2018-8-18

Medal No.1Medal No.2Medal No.3Medal No.4Medal No.5Medal No.6Medal No.7Medal No.8Medal No.9Medal No.10

发表于 2018-5-12 13:23:21 | 显示全部楼层 |阅读模式
海报


导演: 郑保瑞
编剧: 文宁
主演: 郭富城 / 冯绍峰 / 赵丽颖 / 小沈阳 / 罗仲谦 / 林志玲 / 梁咏琪 / 刘涛 / 孙伊涵 / 苑琼丹 / 潘斌龙 / 陈雅丽 / 施诗
类型: 喜剧 / 爱情 / 奇幻
制片国家/地区: 中国大陆 / 香港
语言: 汉语普通话
上映日期: 2018-02-16(中国大陆)
片长: 116分钟
又名: 西游记·女儿国 / 西游记之女儿国 / The Monkey King 3: Kingdom of Women
IMDb链接: tt6466464

西游记女儿国的剧情简介 · · · · · ·
  唐僧师徒途经忘川河,因激怒河神而误入西梁女界。闯入其中,众人才发现这个国家只有女性,并且建国以来此地就没来过男性。而且国中立有祖训,将男人视为天敌。典籍中更有预言,指明有朝一日,会有东土而来的僧人带着一只猴子、一头猪和一个小蓝人闯入其中。他们到来之日,便是女儿国走向毁灭之时。

截图





Video
ID                                       : 1
Format                                   : AVC
Format/Info                              : Advanced Video Codec
Format profile                           : High@L4.1
Format settings                          : CABAC / 9 Ref Frames
Format settings, CABAC                   : Yes
Format settings, ReFrames                : 9 frames
Codec ID                                 : V_MPEG4/ISO/AVC
Duration                                 : 1 h 54 min
Bit rate                                 : 7 500 kb/s
Width                                    : 1 280 pixels
Height                                   : 694 pixels
Display aspect ratio                     : 1.85:1
Frame rate mode                          : Constant
Frame rate                               : 24.000 FPS
Color space                              : YUV
Chroma subsampling                       : 4:2:0
Bit depth                                : 8 bits
Scan type                                : Progressive
Bits/(Pixel*Frame)                       : 0.352
Stream size                              : 5.97 GiB (83%)
Title                                    : FFlipped @ HDChina
Writing library                          : x264 core 142 r2431+42 c69a006 tMod [8-bit@all X86_64]
Encoding settings                        : cabac=1 / ref=9 / deblock=1:-2:-2 / analyse=0x3:0x133 / me=umh / subme=11 / psy=1 / fade_compensate=0.00 / psy_rd=1.10:0.00 / mixed_ref=1 / me_range=48 / chroma_me=1 / trellis=2 / 8x8dct=1 / cqm=0 / deadzone=21,11 / fast_pskip=0 / chroma_qp_offset=-2 / threads=84 / lookahead_threads=5 / sliced_threads=0 / nr=0 / decimate=0 / interlaced=0 / bluray_compat=0 / constrained_intra=0 / fgo=0 / bframes=10 / b_pyramid=2 / b_adapt=2 / b_bias=0 / direct=3 / weightb=1 / open_gop=0 / weightp=2 / keyint=240 / keyint_min=24 / scenecut=40 / intra_refresh=0 / rc_lookahead=0 / rc=2pass / mbtree=0 / bitrate=7500 / ratetol=1.0 / qcomp=0.70 / qpmin=0:0:0 / qpmax=69:69:69 / qpstep=4 / cplxblur=20.0 / qblur=0.5 / vbv_maxrate=50000 / vbv_bufsize=30000 / nal_hrd=none / filler=0 / ip_ratio=1.10 / pb_ratio=1.15 / aq=3:0.95 / aq-sensitivity=10.00 / aq-factor=1.00:1.00:1.00 / aq2=0 / aq3=0
Default                                  : Yes
Forced                                   : No

Audio
ID                                       : 2
Format                                   : DTS
Format/Info                              : Digital Theater Systems
Codec ID                                 : A_DTS
Duration                                 : 1 h 54 min
Bit rate mode                            : Constant
Bit rate                                 : 1 509 kb/s
Channel(s)                               : 6 channels
Channel positions                        : Front: L C R, Side: L R, LFE
Sampling rate                            : 48.0 kHz
Frame rate                               : 93.750 FPS (512 SPF)
Bit depth                                : 24 bits
Compression mode                         : Lossy
Stream size                              : 1.20 GiB (17%)
Language                                 : Chinese
Default                                  : Yes
Forced                                   : No

Text
ID                                       : 3
Format                                   : PGS
Muxing mode                              : zlib
Codec ID                                 : S_HDMV/PGS
Codec ID/Info                            : Picture based subtitle format used on BDs/HD-DVDs
Duration                                 : 1 h 48 min
Bit rate                                 : 15.5 kb/s
Count of elements                        : 2363
Stream size                              : 12.0 MiB (0%)
Language                                 : Chinese
Default                                  : Yes
Forced                                   : No

Menu
00:00:00.000                             : en:00:00:00.000
00:09:26.042                             : en:00:09:26.042
00:21:21.500                             : en:00:21:21.500
00:31:10.917                             : en:00:31:10.917
00:39:21.000                             : en:00:39:21.000
00:52:59.542                             : en:00:52:59.542
01:01:58.875                             : en:01:01:58.875
01:09:56.292                             : en:01:09:56.292
01:21:42.167                             : en:01:21:42.167
01:29:18.375                             : en:01:29:18.375
01:42:01.042                             : en:01:42:01.042
01:47:01.375                             : en:01:47:01.375



西游记女儿国.2018.CHINESE.720p.BluRay.x264.DTS-HDC.中文字幕.7.18 GB.torrent

72.39 KB, 下载次数: 60

西游记女儿国.2018.CHINESE.720p.BluRay.x264.DTS-HDC.中文字幕.7.18 GB

电影交流QQ群: 498117193
您需要登录后才可以回帖 登录 | 注册

本版积分规则

BT探索

GMT+8, 2018-8-19 18:12

Powered by Discuz! X3.2

© 2001-2013 Comsenz Inc.

快速回复 返回顶部 返回列表