BT探索

 找回密码
 注册
搜索
查看: 147|回复: 0

[欧美] 黑豹.Black.Panther.2018.1080p.BluRay.x264.TrueHD.7.1.Atmos.中文字幕.14.30 GB

[复制链接]

3万

主题

4万

帖子

11万

影币

管理员

Rank: 8Rank: 8Rank: 8Rank: 8Rank: 8Rank: 8Rank: 8Rank: 8

积分
116666
注册时间
2010-9-1
最后登录
2018-5-26

Medal No.1Medal No.2Medal No.3Medal No.4Medal No.5Medal No.6Medal No.7Medal No.8Medal No.9Medal No.10

发表于 2018-5-12 20:53:01 | 显示全部楼层 |阅读模式
海报


导演: 瑞恩·库格勒
编剧: 瑞恩·库格勒 / 乔·罗伯特·科尔 / 斯坦·李 / 杰克·科比
主演: 查德维克·博斯曼 / 露皮塔·尼永奥 / 迈克尔·B·乔丹 / 丹娜·奎里拉 / 马丁·弗瑞曼 / 丹尼尔·卡卢亚 / 利蒂希娅·赖特 / 温斯顿·杜克 / 斯特林·K·布朗 / 安吉拉·贝塞特 / 福里斯特·惠特克 / 安迪·瑟金斯 / 弗洛伦丝·卡松巴 / 约翰·卡尼 / 大卫·S.李 / 娜比娅·毕
类型: 动作 / 科幻 / 冒险
制片国家/地区: 美国
语言: 英语 / 韩语
上映日期: 2018-03-09(中国大陆) / 2018-02-16(美国)
片长: 134分钟 / 135分钟(中国大陆)
IMDb链接: tt1825683

黑豹的剧情简介 · · · · · ·
  在漫威影业的影片《黑豹》中,特查拉在其父亲——前瓦坎达国王去世之后,回到了这个科技先进但与世隔绝的非洲国家,继任成为新一任“黑豹”及国王。当旧敌重现时,作为“黑豹”及国王的特查拉身陷两难境地,眼看着瓦坎达及全世界陷于危难之中。面对背叛与危险,这位年轻的国王必须联合同盟, 释放“黑豹”全部力量,奋力捍卫他的人民和国土。

截图




Video
ID                                       : 1
Format                                   : AVC
Format/Info                              : Advanced Video Codec
Format profile                           : High@L4.1
Format settings                          : CABAC / 5 Ref Frames
Format settings, CABAC                   : Yes
Format settings, ReFrames                : 5 frames
Codec ID                                 : V_MPEG4/ISO/AVC
Duration                                 : 2 h 14 min
Bit rate                                 : 10.1 Mb/s
Width                                    : 1 920 pixels
Height                                   : 808 pixels
Display aspect ratio                     : 2.40:1
Frame rate mode                          : Constant
Frame rate                               : 23.976 (24000/1001) FPS
Color space                              : YUV
Chroma subsampling                       : 4:2:0
Bit depth                                : 8 bits
Scan type                                : Progressive
Bits/(Pixel*Frame)                       : 0.272
Stream size                              : 9.51 GiB (66%)
Title                                    : Black.Panther.2018.1080p.BluRay.x264.TrueHD.7.1.Atmos-SWTYBLZ
Writing library                          : x264 core 155 r2901 7d0ff22
Encoding settings                        : cabac=1 / ref=5 / deblock=1:0:0 / analyse=0x3:0x133 / me=umh / subme=7 / psy=1 / psy_rd=1.00:0.00 / mixed_ref=1 / me_range=16 / chroma_me=1 / trellis=1 / 8x8dct=1 / cqm=0 / deadzone=21,11 / fast_pskip=0 / chroma_qp_offset=-2 / threads=24 / lookahead_threads=4 / sliced_threads=0 / nr=0 / decimate=1 / interlaced=0 / bluray_compat=0 / constrained_intra=0 / bframes=3 / b_pyramid=2 / b_adapt=1 / b_bias=0 / direct=1 / weightb=1 / open_gop=0 / weightp=2 / keyint=250 / keyint_min=23 / scenecut=40 / intra_refresh=0 / rc_lookahead=40 / rc=2pass / mbtree=1 / bitrate=10117 / ratetol=1.0 / qcomp=0.60 / qpmin=0 / qpmax=69 / qpstep=4 / cplxblur=20.0 / qblur=0.5 / ip_ratio=1.40 / aq=1:1.00
Language                                 : English
Default                                  : Yes
Forced                                   : No

Audio #1
ID                                       : 2
Format                                   : TrueHD
Format profile                           : TrueHD+Atmos / TrueHD
Codec ID                                 : A_TRUEHD
Duration                                 : 2 h 14 min
Bit rate mode                            : Variable
Bit rate                                 : 4 327 kb/s
Maximum bit rate                         : 7 134 kb/s
Channel(s)                               : Object Based / 8 channels
Channel positions                        : Object Based / Front: L C R, Side: L R, Back: L R, LFE
Sampling rate                            :  / 48.0 kHz
Frame rate                               : 1 200.000 FPS (40 SPF)
Compression mode                         : Lossless
Delay relative to video                  : 32 ms
Stream size                              : 4.07 GiB (28%)
Title                                    : Black.Panther.2018.1080p.BluRay.x264.TrueHD.7.1.Atmos-SWTYBLZ
Language                                 : English
Default                                  : Yes
Forced                                   : No

Audio #2
ID                                       : 3
Format                                   : AC-3
Format/Info                              : Audio Coding 3
Codec ID                                 : A_AC3
Duration                                 : 2 h 14 min
Bit rate mode                            : Constant
Bit rate                                 : 640 kb/s
Channel(s)                               : 6 channels
Channel positions                        : Front: L C R, Side: L R, LFE
Sampling rate                            : 48.0 kHz
Frame rate                               : 31.250 FPS (1536 SPF)
Bit depth                                : 16 bits
Compression mode                         : Lossy
Delay relative to video                  : 31 ms
Stream size                              : 616 MiB (4%)
Title                                    : Black.Panther.2018.1080p.BluRay.x264.TrueHD.7.1.Atmos-SWTYBLZ
Language                                 : English
Service kind                             : Complete Main
Default                                  : No
Forced                                   : No

Text #1
ID                                       : 4
Format                                   : UTF-8
Codec ID                                 : S_TEXT/UTF8
Codec ID/Info                            : UTF-8 Plain Text
Duration                                 : 2 h 10 min
Bit rate                                 : 1 b/s
Count of elements                        : 68
Stream size                              : 1.15 KiB (0%)
Title                                    : English-FORCED-SRT
Language                                 : English
Default                                  : Yes
Forced                                   : Yes

Text #2
ID                                       : 5
Format                                   : UTF-8
Codec ID                                 : S_TEXT/UTF8
Codec ID/Info                            : UTF-8 Plain Text
Duration                                 : 2 h 14 min
Bit rate                                 : 42 b/s
Count of elements                        : 1585
Stream size                              : 41.7 KiB (0%)
Title                                    : English-SRT
Language                                 : English
Default                                  : No
Forced                                   : No

Text #3
ID                                       : 6
Format                                   : PGS
Muxing mode                              : zlib
Codec ID                                 : S_HDMV/PGS
Codec ID/Info                            : Picture based subtitle format used on BDs/HD-DVDs
Duration                                 : 2 h 14 min
Bit rate                                 : 32.4 kb/s
Count of elements                        : 3670
Stream size                              : 31.0 MiB (0%)
Title                                    : English-PGS
Language                                 : English
Default                                  : No
Forced                                   : No

Text #4
ID                                       : 7
Format                                   : PGS
Muxing mode                              : zlib
Codec ID                                 : S_HDMV/PGS
Codec ID/Info                            : Picture based subtitle format used on BDs/HD-DVDs
Duration                                 : 2 h 14 min
Bit rate                                 : 27.4 kb/s
Count of elements                        : 2946
Stream size                              : 26.3 MiB (0%)
Title                                    : French-PGS
Language                                 : French
Default                                  : No
Forced                                   : No

Text #5
ID                                       : 8
Format                                   : PGS
Muxing mode                              : zlib
Codec ID                                 : S_HDMV/PGS
Codec ID/Info                            : Picture based subtitle format used on BDs/HD-DVDs
Duration                                 : 2 h 14 min
Bit rate                                 : 26.9 kb/s
Count of elements                        : 2906
Stream size                              : 25.8 MiB (0%)
Title                                    : Spanish-PGS
Language                                 : Spanish
Default                                  : No
Forced                                   : No

Text #6
ID                                       : 9
Format                                   : PGS
Muxing mode                              : zlib
Codec ID                                 : S_HDMV/PGS
Codec ID/Info                            : Picture based subtitle format used on BDs/HD-DVDs
Duration                                 : 2 h 14 min
Bit rate                                 : 16.2 kb/s
Count of elements                        : 2908
Stream size                              : 15.6 MiB (0%)
Title                                    : Chinese-PGS
Language                                 : Chinese
Default                                  : No
Forced                                   : No

Text #7
ID                                       : 10
Format                                   : PGS
Muxing mode                              : zlib
Codec ID                                 : S_HDMV/PGS
Codec ID/Info                            : Picture based subtitle format used on BDs/HD-DVDs
Duration                                 : 2 h 14 min
Bit rate                                 : 13.4 kb/s
Count of elements                        : 2930
Stream size                              : 12.9 MiB (0%)
Title                                    : Korean-PGS
Language                                 : Korean
Default                                  : No
Forced                                   : No

Text #8
ID                                       : 11
Format                                   : PGS
Muxing mode                              : zlib
Codec ID                                 : S_HDMV/PGS
Codec ID/Info                            : Picture based subtitle format used on BDs/HD-DVDs
Duration                                 : 2 h 14 min
Bit rate                                 : 16.1 kb/s
Count of elements                        : 2912
Stream size                              : 15.5 MiB (0%)
Title                                    : Thai-PGS
Language                                 : Thai
Default                                  : No
Forced                                   : No

Text #9
ID                                       : 12
Format                                   : PGS
Muxing mode                              : zlib
Codec ID                                 : S_HDMV/PGS
Codec ID/Info                            : Picture based subtitle format used on BDs/HD-DVDs
Duration                                 : 2 h 14 min
Bit rate                                 : 17.8 kb/s
Count of elements                        : 2998
Stream size                              : 17.1 MiB (0%)
Title                                    : Chinese-PGS
Language                                 : Chinese
Default                                  : No
Forced                                   : No

Text #10
ID                                       : 13
Format                                   : PGS
Muxing mode                              : zlib
Codec ID                                 : S_HDMV/PGS
Codec ID/Info                            : Picture based subtitle format used on BDs/HD-DVDs
Duration                                 : 2 h 10 min
Bit rate                                 : 853 b/s
Count of elements                        : 136
Stream size                              : 816 KiB (0%)
Title                                    : English-FORCED-PGS
Language                                 : English
Default                                  : No
Forced                                   : No

Text #11
ID                                       : 14
Format                                   : PGS
Muxing mode                              : zlib
Codec ID                                 : S_HDMV/PGS
Codec ID/Info                            : Picture based subtitle format used on BDs/HD-DVDs
Duration                                 : 2 h 12 min
Bit rate                                 : 1 253 b/s
Count of elements                        : 194
Stream size                              : 1.19 MiB (0%)
Title                                    : French-FORCED-PGS
Language                                 : French
Default                                  : No
Forced                                   : No

Text #12
ID                                       : 15
Format                                   : PGS
Muxing mode                              : zlib
Codec ID                                 : S_HDMV/PGS
Codec ID/Info                            : Picture based subtitle format used on BDs/HD-DVDs
Duration                                 : 2 h 10 min
Bit rate                                 : 1 021 b/s
Count of elements                        : 152
Stream size                              : 980 KiB (0%)
Title                                    : Spanish-FORCED-PGS
Language                                 : Spanish
Default                                  : No
Forced                                   : No

Menu
00:00:00.000                             : en:Chapter 1
00:06:56.290                             : en:Chapter 2
00:12:02.805                             : en:Chapter 3
00:19:12.359                             : en:Chapter 4
00:28:32.961                             : en:Chapter 5
00:33:11.698                             : en:Chapter 6
00:40:57.496                             : en:Chapter 7
00:48:34.036                             : en:Chapter 8
00:53:46.097                             : en:Chapter 9
01:01:57.338                             : en:Chapter 10
01:08:33.025                             : en:Chapter 11
01:16:46.768                             : en:Chapter 12
01:22:24.022                             : en:Chapter 13
01:31:21.434                             : en:Chapter 14
01:41:15.360                             : en:Chapter 15
01:50:56.483                             : en:Chapter 16
01:59:16.941                             : en:Chapter 17
02:02:43.647                             : en:Chapter 18

Black.Panther.2018.1080p.BluRay.x264.TrueHD.7.1.Atmos.torrent

72.05 KB, 下载次数: 39

电影交流QQ群: 498117193
您需要登录后才可以回帖 登录 | 注册

本版积分规则

小黑屋|手机版|BT探索

GMT+8, 2018-5-27 09:19

Powered by Discuz! X3.2

© 2001-2013 Comsenz Inc.

快速回复 返回顶部 返回列表