BT探索

 找回密码
 注册
搜索
查看: 57|回复: 0

[Remux] 游戏之夜.Game.Night.2018.1080p.BluRay.REMUX.AVC.DTS-HD.MA.5.1-FGT.25.81 GB

[复制链接]

3万

主题

4万

帖子

11万

影币

管理员

Rank: 8Rank: 8Rank: 8Rank: 8Rank: 8Rank: 8Rank: 8Rank: 8

积分
116953
注册时间
2010-9-1
最后登录
2018-5-28

Medal No.1Medal No.2Medal No.3Medal No.4Medal No.5Medal No.6Medal No.7Medal No.8Medal No.9Medal No.10

发表于 2018-5-12 21:15:33 | 显示全部楼层 |阅读模式
海报


导演: 约翰·弗朗西斯·戴利 / 乔纳森·M·戈尔茨坦
编剧: 马克·佩雷斯
主演: 杰森·贝特曼 / 瑞秋·麦克亚当斯 / 凯尔·钱德勒 / 莎朗·豪根 / 比利·马格努森 / 拉蒙尼·莫里斯 / 凯莉·班伯里 / 杰西·普莱蒙 / 迈克尔·C·豪尔 / 丹尼·赫斯顿 / 切尔西·帕瑞蒂 / 卡米利·陈 / 泽瑞克·威廉姆斯 / 约书亚·米克尔 / R·F·戴利
类型: 喜剧 / 悬疑 / 犯罪
制片国家/地区: 美国
语言: 英语
上映日期: 2018-02-23(美国)
片长: 100分钟
又名: 游戏夜杀必死(台) / 今晚玩救你(港)
IMDb链接: tt2704998

游戏之夜的剧情简介 · · · · · ·
  马克思(贝特曼饰)的兄弟布鲁克斯(钱德勒饰)筹划“谋杀”派对后却遭绑架,马克思、安妮(麦克亚当斯饰)以为这只是一场游戏,但显然他们已陷入困境。

截图




Video
ID                                       : 1
Format                                   : AVC
Format/Info                              : Advanced Video Codec
Format profile                           : High@L4.1
Format settings                          : CABAC / 4 Ref Frames
Format settings, CABAC                   : Yes
Format settings, ReFrames                : 4 frames
Codec ID                                 : V_MPEG4/ISO/AVC
Duration                                 : 1 h 40 min
Bit rate mode                            : Variable
Bit rate                                 : 29.8 Mb/s
Maximum bit rate                         : 34.0 Mb/s
Width                                    : 1 920 pixels
Height                                   : 1 080 pixels
Display aspect ratio                     : 16:9
Frame rate mode                          : Constant
Frame rate                               : 23.976 (24000/1001) FPS
Color space                              : YUV
Chroma subsampling                       : 4:2:0
Bit depth                                : 8 bits
Scan type                                : Progressive
Bits/(Pixel*Frame)                       : 0.600
Stream size                              : 20.9 GiB (81%)
Title                                    : Game.Night.2018.1080p.BluRay.REMUX.AVC.DTS-HD.MA.5.1-FGT
Language                                 : English
Default                                  : No
Forced                                   : No

Audio #1
ID                                       : 2
Format                                   : DTS
Format/Info                              : Digital Theater Systems
Format profile                           : MA / Core
Codec ID                                 : A_DTS
Duration                                 : 1 h 40 min
Bit rate mode                            : Variable / Constant
Bit rate                                 : 3 596 kb/s / 1 509 kb/s
Channel(s)                               : 6 channels
Channel positions                        : Front: L C R, Side: L R, LFE
Sampling rate                            : 48.0 kHz
Frame rate                               : 93.750 FPS (512 SPF)
Bit depth                                : 24 bits
Compression mode                         : Lossless / Lossy
Stream size                              : 2.51 GiB (10%)
Title                                    : Game.Night.2018.1080p.BluRay.REMUX.AVC.DTS-HD.MA.5.1-FGT
Language                                 : English
Default                                  : Yes
Forced                                   : No

Audio #2
ID                                       : 3
Format                                   : DTS
Format/Info                              : Digital Theater Systems
Codec ID                                 : A_DTS
Duration                                 : 1 h 40 min
Bit rate mode                            : Constant
Bit rate                                 : 1 509 kb/s
Channel(s)                               : 6 channels
Channel positions                        : Front: L C R, Side: L R, LFE
Sampling rate                            : 48.0 kHz
Frame rate                               : 93.750 FPS (512 SPF)
Bit depth                                : 24 bits
Compression mode                         : Lossy
Stream size                              : 1.06 GiB (4%)
Title                                    : Game.Night.2018.1080p.BluRay.REMUX.AVC.DTS-HD.MA.5.1-FGT
Language                                 : English
Default                                  : No
Forced                                   : No

Audio #3
ID                                       : 4
Format                                   : AC-3
Format/Info                              : Audio Coding 3
Codec ID                                 : A_AC3
Duration                                 : 1 h 40 min
Bit rate mode                            : Constant
Bit rate                                 : 640 kb/s
Channel(s)                               : 6 channels
Channel positions                        : Front: L C R, Side: L R, LFE
Sampling rate                            : 48.0 kHz
Frame rate                               : 31.250 FPS (1536 SPF)
Bit depth                                : 16 bits
Compression mode                         : Lossy
Stream size                              : 458 MiB (2%)
Title                                    : Game.Night.2018.1080p.BluRay.REMUX.AVC.DTS-HD.MA.5.1-FGT
Language                                 : English
Service kind                             : Complete Main
Default                                  : No
Forced                                   : No

Audio #4
ID                                       : 5
Format                                   : AC-3
Format/Info                              : Audio Coding 3
Codec ID                                 : A_AC3
Duration                                 : 1 h 40 min
Bit rate mode                            : Constant
Bit rate                                 : 640 kb/s
Channel(s)                               : 6 channels
Channel positions                        : Front: L C R, Side: L R, LFE
Sampling rate                            : 48.0 kHz
Frame rate                               : 31.250 FPS (1536 SPF)
Bit depth                                : 16 bits
Compression mode                         : Lossy
Stream size                              : 458 MiB (2%)
Title                                    : Game.Night.2018.1080p.BluRay.REMUX.AVC.DTS-HD.MA.5.1-FGT
Language                                 : French
Service kind                             : Complete Main
Default                                  : No
Forced                                   : No

Audio #5
ID                                       : 6
Format                                   : AC-3
Format/Info                              : Audio Coding 3
Codec ID                                 : A_AC3
Duration                                 : 1 h 40 min
Bit rate mode                            : Constant
Bit rate                                 : 640 kb/s
Channel(s)                               : 6 channels
Channel positions                        : Front: L C R, Side: L R, LFE
Sampling rate                            : 48.0 kHz
Frame rate                               : 31.250 FPS (1536 SPF)
Bit depth                                : 16 bits
Compression mode                         : Lossy
Stream size                              : 458 MiB (2%)
Title                                    : Game.Night.2018.1080p.BluRay.REMUX.AVC.DTS-HD.MA.5.1-FGT
Language                                 : Spanish
Service kind                             : Complete Main
Default                                  : No
Forced                                   : No

Text #1
ID                                       : 7
Format                                   : PGS
Muxing mode                              : zlib
Codec ID                                 : S_HDMV/PGS
Codec ID/Info                            : Picture based subtitle format used on BDs/HD-DVDs
Duration                                 : 1 h 39 min
Bit rate                                 : 60.5 kb/s
Count of elements                        : 4412
Stream size                              : 43.0 MiB (0%)
Title                                    : English-PGS
Language                                 : English
Default                                  : Yes
Forced                                   : No

Text #2
ID                                       : 8
Format                                   : PGS
Muxing mode                              : zlib
Codec ID                                 : S_HDMV/PGS
Codec ID/Info                            : Picture based subtitle format used on BDs/HD-DVDs
Duration                                 : 1 h 39 min
Bit rate                                 : 38.5 kb/s
Count of elements                        : 3364
Stream size                              : 27.3 MiB (0%)
Title                                    : French-PGS
Language                                 : French
Default                                  : No
Forced                                   : No

Text #3
ID                                       : 9
Format                                   : PGS
Muxing mode                              : zlib
Codec ID                                 : S_HDMV/PGS
Codec ID/Info                            : Picture based subtitle format used on BDs/HD-DVDs
Duration                                 : 1 h 39 min
Bit rate                                 : 49.2 kb/s
Count of elements                        : 4134
Stream size                              : 34.9 MiB (0%)
Title                                    : Spanish-PGS
Language                                 : Spanish
Default                                  : No
Forced                                   : No

Text #4
ID                                       : 10
Format                                   : PGS
Muxing mode                              : zlib
Codec ID                                 : S_HDMV/PGS
Codec ID/Info                            : Picture based subtitle format used on BDs/HD-DVDs
Duration                                 : 1 h 21 min
Bit rate                                 : 253 b/s
Count of elements                        : 16
Stream size                              : 151 KiB (0%)
Title                                    : French-FORCED-PGS
Language                                 : French
Default                                  : No
Forced                                   : No

Text #5
ID                                       : 11
Format                                   : PGS
Muxing mode                              : zlib
Codec ID                                 : S_HDMV/PGS
Codec ID/Info                            : Picture based subtitle format used on BDs/HD-DVDs
Duration                                 : 1 h 39 min
Bit rate                                 : 1 501 b/s
Count of elements                        : 78
Stream size                              : 1.07 MiB (0%)
Title                                    : Spanish-FORCED-PGS
Language                                 : Spanish
Default                                  : No
Forced                                   : No

Menu
00:00:00.000                             : en:Chapter 01
00:10:35.092                             : en:Chapter 02
00:18:37.116                             : en:Chapter 03
00:32:24.859                             : en:Chapter 04
00:42:40.307                             : en:Chapter 05
00:52:27.352                             : en:Chapter 06
01:02:01.300                             : en:Chapter 07
01:11:50.931                             : en:Chapter 08
01:22:36.743                             : en:Chapter 09
01:32:54.902                             : en:Chapter 10

Game.Night.2018.1080p.BluRay.REMUX.AVC.DTS-HD.MA.5.1.torrent

65.08 KB, 下载次数: 7

电影交流QQ群: 498117193
您需要登录后才可以回帖 登录 | 注册

本版积分规则

小黑屋|手机版|BT探索

GMT+8, 2018-5-28 16:02

Powered by Discuz! X3.2

© 2001-2013 Comsenz Inc.

快速回复 返回顶部 返回列表