BT探索

 找回密码
 注册
搜索
查看: 176|回复: 0

[欧美] 中国城.Coin.Locker.Girl.2015.KOREAN.1080p.AMZN.WEBRip.DD5.1.x264-AJP69.8.87 GB

[复制链接]

3万

主题

4万

帖子

11万

影币

管理员

Rank: 8Rank: 8Rank: 8Rank: 8Rank: 8Rank: 8Rank: 8Rank: 8

积分
116666
注册时间
2010-9-1
最后登录
2018-5-26

Medal No.1Medal No.2Medal No.3Medal No.4Medal No.5Medal No.6Medal No.7Medal No.8Medal No.9Medal No.10

发表于 2018-5-14 19:59:40 | 显示全部楼层 |阅读模式
海报


导演: 韩俊熙
编剧: 韩俊熙
主演: 金惠秀 / 金高银 / 高庚杓 / 朴宝剑 / 严泰九 / 李秀卿 / 赵贤哲 / 赵福来 / 李代延 / 郑锡勇
类型: 剧情
官方网站: chinatownfilm.co.kr
制片国家/地区: 韩国
语言: 韩语
上映日期: 2015-04-29(韩国)
片长: 110分钟
又名: 唐人街 / 储物柜女孩 / Chinatown / Coin Locker Girl
IMDb链接: tt4647788

中国城的剧情简介 · · · · · ·
  被扔在地铁10号储物柜的女孩日英(金高银 饰)遇上了在一个名为“中国城”地方工作的女人(金惠秀 饰),这个女人从此收养了日英并要她称呼自己为妈妈。除了日英,这个妈妈还收养了其他很多和日英一样被抛弃的人们,他们有些因为非法逗留,有些因为被没地方可去,但唯一只有日英可以跟着 “妈妈”回家,其他孩子都只摆在了妈妈开的中国城里。就在某一天,日英遇上了前来借妈妈钱的高利贷集团儿子锡贤(朴宝剑 饰),通过他看到了完全和在妈妈温暖怀抱中不一样的世界,日英开始对外面的世界感到好奇。知道这一切后妈妈为了禁止日英的幻想,给了她一件非常危险的任务。

中国城的获奖情况
第68届戛纳电影节 金摄影机奖(导演处女作奖)(提名) 韩俊熙
第10届亚洲电影大奖 最佳女主角(提名) 金惠秀
第52届百想艺术大赏 电影类 最佳男配角(提名) 严泰久

截图





Video
ID                                       : 1
Format                                   : AVC
Format/Info                              : Advanced Video Codec
Format profile                           : High@L4
Format settings                          : CABAC / 4 Ref Frames
Format settings, CABAC                   : Yes
Format settings, ReFrames                : 4 frames
Codec ID                                 : V_MPEG4/ISO/AVC
Duration                                 : 1 h 50 min
Bit rate mode                            : Variable
Bit rate                                 : 10.9 Mb/s
Maximum bit rate                         : 15.0 Mb/s
Width                                    : 1 920 pixels
Height                                   : 816 pixels
Display aspect ratio                     : 2.35:1
Frame rate mode                          : Constant
Frame rate                               : 23.976 (24000/1001) FPS
Color space                              : YUV
Chroma subsampling                       : 4:2:0
Bit depth                                : 8 bits
Scan type                                : Progressive
Bits/(Pixel*Frame)                       : 0.289
Stream size                              : 8.37 GiB (94%)
Default                                  : Yes
Forced                                   : No
Color range                              : Limited
Color primaries                          : BT.709
Transfer characteristics                 : BT.709
Matrix coefficients                      : BT.709

Audio
ID                                       : 2
Format                                   : E-AC-3
Format/Info                              : Enhanced Audio Coding 3
Codec ID                                 : A_EAC3
Duration                                 : 1 h 50 min
Bit rate mode                            : Constant
Bit rate                                 : 640 kb/s
Channel(s)                               : 6 channels
Channel positions                        : Front: L C R, Side: L R, LFE
Sampling rate                            : 48.0 kHz
Frame rate                               : 187.500 FPS (256 SPF)
Compression mode                         : Lossy
Stream size                              : 505 MiB (6%)
Language                                 : Korean
Service kind                             : Complete Main
Default                                  : Yes
Forced                                   : No

Text
ID                                       : 3
Format                                   : UTF-8
Codec ID                                 : S_TEXT/UTF8
Codec ID/Info                            : UTF-8 Plain Text
Duration                                 : 1 h 44 min
Bit rate                                 : 25 b/s
Count of elements                        : 913
Stream size                              : 19.1 KiB (0%)
Title                                    : SDH
Language                                 : English
Default                                  : No
Forced                                   : No



Coin.Locker.Girl.2015.KOREAN.1080p.AMZN.WEBRip.DD5.1.x264.torrent

89.21 KB, 下载次数: 25

电影交流QQ群: 498117193
您需要登录后才可以回帖 登录 | 注册

本版积分规则

小黑屋|手机版|BT探索

GMT+8, 2018-5-27 09:20

Powered by Discuz! X3.2

© 2001-2013 Comsenz Inc.

快速回复 返回顶部 返回列表