BT探索

 找回密码
 注册
查看: 237|回复: 0

[日韩] 今天开始世界属于你.2017.JAPANESE.1080p.BluRay.x264-WiKi.日语中字.9.00 GB

[复制链接]

4万

主题

4万

帖子

1万

在线时间

管理员

Rank: 8Rank: 8Rank: 8Rank: 8Rank: 8Rank: 8Rank: 8Rank: 8

积分
137117
注册时间
2010-9-1
最后登录
2018-10-19

Medal No.1Medal No.2Medal No.3Medal No.4Medal No.5Medal No.6Medal No.7Medal No.8Medal No.9Medal No.10

发表于 2018-5-14 20:02:55 | 显示全部楼层 |阅读模式
海报


导演: 尾崎将也
编剧: 尾崎将也
主演: 门胁麦 / 三浦贵大 / 比留川游 / 岡本拓朗 / 安井顺平 / 驹木根隆介 / 槙田雄司 / 江原由希子
类型: 剧情
官方网站: sekakimi.com
制片国家/地区: 日本
语言: 日语
上映日期: 2017-07-15(日本)
片长: 106分钟
又名: 今天开始,世界是你的
IMDb链接: tt6323858

今天开始世界属于你的剧情简介 · · · · · ·
  著名日剧编剧尾崎将也导演的完全原创映画,一个关于宅女走向社会的日常物语。

截图




Video
ID                                       : 1
Format                                   : AVC
Format/Info                              : Advanced Video Codec
Format profile                           : [email protected]
Format settings                          : CABAC / 4 Ref Frames
Format settings, CABAC                   : Yes
Format settings, ReFrames                : 4 frames
Codec ID                                 : V_MPEG4/ISO/AVC
Duration                                 : 1 h 46 min
Bit rate                                 : 11.5 Mb/s
Width                                    : 1 920 pixels
Height                                   : 1 038 pixels
Display aspect ratio                     : 1.85:1
Frame rate mode                          : Constant
Frame rate                               : 23.976 (24000/1001) FPS
Color space                              : YUV
Chroma subsampling                       : 4:2:0
Bit depth                                : 8 bits
Scan type                                : Progressive
Bits/(Pixel*Frame)                       : 0.240
Stream size                              : 8.51 GiB (95%)
Writing library                          : x264 core 129 r2245+704+36 8e61944 tMod+MixAQ [[email protected]:2:0 X86_64]
Encoding settings                        : cabac=1 / ref=4 / deblock=1:-3:-3 / analyse=0x3:0x133 / me=umh / subme=11 / psy=1 / fade_compensate=0.00 / psy_rd=1.05:0.10 / mixed_ref=1 / me_range=64 / chroma_me=1 / trellis=2 / 8x8dct=1 / cqm=0 / deadzone=21,11 / fast_pskip=0 / chroma_qp_offset=-3 / threads=18 / lookahead_threads=3 / sliced_threads=0 / nr=0 / decimate=0 / interlaced=0 / bluray_compat=0 / constrained_intra=0 / fgo=0 / bframes=10 / b_pyramid=2 / b_adapt=2 / b_bias=0 / direct=3 / weightb=1 / open_gop=0 / weightp=2 / keyint=250 / keyint_min=23 / scenecut=40 / intra_refresh=0 / rc=2pass / mbtree=0 / bitrate=11460 / ratetol=1.0 / qcomp=0.70 / qpmin=0 / qpmax=69 / qpstep=4 / cplxblur=20.0 / qblur=0.5 / ip_ratio=1.40 / pb_ratio=1.30 / aq=1 / aq-strength=0.90 / aq-sensitivity=10.00 / aq-ifactor=1.00 / aq-pfactor=1.00 / aq-bfactor=1.00 / aq2=0
Language                                 : Japanese
Default                                  : Yes
Forced                                   : No

Audio
ID                                       : 2
Format                                   : AC-3
Format/Info                              : Audio Coding 3
Codec ID                                 : A_AC3
Duration                                 : 1 h 46 min
Bit rate mode                            : Constant
Bit rate                                 : 640 kb/s
Channel(s)                               : 6 channels
Channel positions                        : Front: L C R, Side: L R, LFE
Sampling rate                            : 48.0 kHz
Frame rate                               : 31.250 FPS (1536 SPF)
Bit depth                                : 16 bits
Compression mode                         : Lossy
Stream size                              : 487 MiB (5%)
Language                                 : Japanese
Service kind                             : Complete Main
Default                                  : Yes
Forced                                   : No

Text
ID                                       : 3
Format                                   : ASS
Codec ID                                 : S_TEXT/ASS
Codec ID/Info                            : Advanced Sub Station Alpha
Duration                                 : 1 h 43 min
Bit rate                                 : 65 b/s
Count of elements                        : 997
Compression mode                         : Lossless
Stream size                              : 49.9 KiB (0%)
Language                                 : Chinese
Default                                  : Yes
Forced                                   : No

Menu
00:00:00.000                             : en:00:00:00.000
00:00:39.038                             : en:00:00:39.038
00:08:24.545                             : en:00:08:24.545
00:16:33.659                             : en:00:16:33.659
00:27:29.689                             : en:00:27:29.689
00:39:44.715                             : en:00:39:44.715
00:51:21.995                             : en:00:51:21.995
01:02:38.421                             : en:01:02:38.421
01:17:57.422                             : en:01:17:57.422
01:30:49.777                             : en:01:30:49.777
01:40:21.014                             : en:01:40:21.014
01:46:23.168                             : en:01:46:23.168



今天开始世界属于你.2017.JAPANESE.1080p.BluRay.x264-WiKi.日语中字.9.00 GB.torrent

90.52 KB, 下载次数: 36

今天开始世界属于你.2017.JAPANESE.1080p.BluRay.x264-WiKi.日语中字.9.00 GB

您需要登录后才可以回帖 登录 | 注册

本版积分规则

BT探索  

GMT+8, 2018-10-19 12:17

Powered by Discuz! X3.2

© 2001-2013 Comsenz Inc.

快速回复 返回顶部 返回列表