BT探索

 找回密码
 注册
搜索
查看: 158|回复: 2

[欧美] 定时拍摄.Time.Lapse.2014.1080p.BluRay.x264-ROVERS.7.65 GB

[复制链接]

3万

主题

4万

帖子

11万

影币

管理员

Rank: 8Rank: 8Rank: 8Rank: 8Rank: 8Rank: 8Rank: 8Rank: 8

积分
116953
注册时间
2010-9-1
最后登录
2018-5-28

Medal No.1Medal No.2Medal No.3Medal No.4Medal No.5Medal No.6Medal No.7Medal No.8Medal No.9Medal No.10

发表于 2018-5-15 09:39:57 | 显示全部楼层 |阅读模式
海报


导演: Bradley King
编剧: Bradley King / Bp Cooper
主演: 丹妮尔·帕娜贝克 / 马特·欧莱瑞 / 阿明·约瑟夫 / 莎朗·摩翰 / George Finn / 杰森·斯皮萨克 / David Figlioli / Judith Drake / Mark C. Hanson
类型: 科幻 / 惊悚
制片国家/地区: 美国
语言: 英语
上映日期: 2014-05-20(戛纳电影节)
片长: 104分钟
又名: 延时拍摄 / 时光穿梭
IMDb链接: tt2669336

定时拍摄的剧情简介 · · · · · ·
  某座住宅区,负责公寓内各项维修事务的菲恩(Matt O'Leary 饰)和约瑟(George Finn 饰)是一对穷的叮当响的好基友。某天菲恩的女友凯莉(Danielle Panabaker 饰)来到他们的住处,当得知住在隔壁的贝先生已经很长时间没走出房门时,凯莉自告奋勇上门查看,结果却一脸错愕地回到二人面前。原来贝先生早已不见踪影,房间内一面墙贴满了以三个人为对象的拍立得照片,窗口则有一台奇怪的机器正对着菲恩和约瑟的房间。不久后他们发现,那台机器竟是可以拍摄到未来情景的照相机。他们发现了贝先生的尸体,然而因为照相机的原因秘藏了此事。
  无意间拥有了窥视未来的手段,年轻人们的心不知不觉躁动起来……

截图





Video
ID                                       : 1
Format                                   : AVC
Format/Info                              : Advanced Video Codec
Format profile                           : High@L4.1
Format settings, CABAC                   : Yes
Format settings, ReFrames                : 4 frames
Codec ID                                 : V_MPEG4/ISO/AVC
Duration                                 : 1 h 44 min
Bit rate                                 : 9 005 kb/s
Width                                    : 1 920 pixels
Height                                   : 1 080 pixels
Display aspect ratio                     : 16:9
Frame rate mode                          : Constant
Frame rate                               : 23.976 FPS
Color space                              : YUV
Chroma subsampling                       : 4:2:0
Bit depth                                : 8 bits
Scan type                                : Progressive
Bits/(Pixel*Frame)                       : 0.181
Stream size                              : 6.40 GiB (84%)
Writing library                          : x264 core 146 r2538 121396c
Encoding settings                        : cabac=1 / ref=4 / deblock=1:0:0 / analyse=0x3:0x133 / me=umh / subme=7 / psy=1 / psy_rd=1.00:0.00 / mixed_ref=1 / me_range=16 / chroma_me=1 / trellis=1 / 8x8dct=1 / cqm=0 / deadzone=21,11 / fast_pskip=0 / chroma_qp_offset=-2 / threads=18 / lookahead_threads=3 / sliced_threads=0 / nr=0 / decimate=1 / interlaced=0 / bluray_compat=0 / constrained_intra=0 / bframes=3 / b_pyramid=2 / b_adapt=1 / b_bias=0 / direct=1 / weightb=1 / open_gop=0 / weightp=2 / keyint=250 / keyint_min=23 / scenecut=40 / intra_refresh=0 / rc_lookahead=40 / rc=2pass / mbtree=1 / bitrate=9005 / ratetol=1.0 / qcomp=0.60 / qpmin=0 / qpmax=69 / qpstep=4 / cplxblur=20.0 / qblur=0.5 / ip_ratio=1.40 / aq=1:1.00
Language                                 : English
Default                                  : Yes
Forced                                   : No

Audio
ID                                       : 2
Format                                   : DTS
Format/Info                              : Digital Theater Systems
Mode                                     : 16
Format settings, Endianness              : Big
Codec ID                                 : A_DTS
Duration                                 : 1 h 44 min
Bit rate mode                            : Constant
Bit rate                                 : 1 509 kb/s
Channel(s)                               : 6 channels
Channel positions                        : Front: L C R, Side: L R, LFE
Sampling rate                            : 48.0 kHz
Frame rate                               : 93.750 FPS (512 spf)
Bit depth                                : 24 bits
Compression mode                         : Lossy
Stream size                              : 1.10 GiB (14%)
Language                                 : English
Default                                  : Yes
Forced                                   : No

Menu
00:00:00.000                             : en:00:00:00.000
00:04:39.529                             : en:00:04:39.529
00:14:20.568                             : en:00:14:20.568
00:25:30.404                             : en:00:25:30.404
00:34:59.597                             : en:00:34:59.597
00:44:53.983                             : en:00:44:53.983
00:55:05.302                             : en:00:55:05.302
01:00:37.717                             : en:01:00:37.717
01:10:58.421                             : en:01:10:58.421
01:18:21.488                             : en:01:18:21.488
01:28:01.735                             : en:01:28:01.735
01:38:57.974                             : en:01:38:57.974


Time.Lapse.2014.1080p.BluRay.x264.torrent

77 KB, 下载次数: 15

电影交流QQ群: 498117193

0

主题

146

帖子

145

影币

影迷

Rank: 2Rank: 2

积分
145
注册时间
2018-4-12
最后登录
2018-5-25
发表于 2018-5-15 21:33:09 | 显示全部楼层
thanks for sharing the film
电影交流QQ群: 498117193

0

主题

37

帖子

47

影币

观众

Rank: 1

积分
47
注册时间
2018-4-19
最后登录
2018-5-28
发表于 2018-5-17 06:18:20 | 显示全部楼层
上帝很可能是不存在的,没有人是创世主,也没有人能掌握我们的命运。也并不存在天堂或者来世,我们只有此生,来欣赏宇宙之美。正因如此,我非常感恩。
电影交流QQ群: 498117193
您需要登录后才可以回帖 登录 | 注册

本版积分规则

小黑屋|手机版|BT探索

GMT+8, 2018-5-28 15:56

Powered by Discuz! X3.2

© 2001-2013 Comsenz Inc.

快速回复 返回顶部 返回列表