BT探索

 找回密码
 注册
查看: 280|回复: 0

[HDR] 疯狂的麦克斯.Mad.Max.1979.2160p.WEBRip.x265.10bit.HDR.DTS-HD.MA.5.1-SK.24.21 GB

[复制链接]

3万

主题

4万

帖子

13万

影币

管理员

Rank: 8Rank: 8Rank: 8Rank: 8Rank: 8Rank: 8Rank: 8Rank: 8

积分
136978
注册时间
2010-9-1
最后登录
2018-10-23

Medal No.1Medal No.2Medal No.3Medal No.4Medal No.5Medal No.6Medal No.7Medal No.8Medal No.9Medal No.10

发表于 2018-5-15 09:46:20 | 显示全部楼层 |阅读模式
海报


导演: 乔治·米勒
编剧: 乔治·米勒 / Byron Kennedy / James McCausland
主演: 梅尔·吉布森 / 休·基斯-拜恩 / 雷格·埃文斯 / Steve Bisley / Bertrand Cadart / Sheila Florance / 乔纳森·哈迪 / Nick Lathouris / Steve Millichamp / Gil Tucker
类型: 动作 / 科幻 / 惊悚 / 冒险
制片国家/地区: 澳大利亚
语言: 英语
上映日期: 1979-04-12(澳大利亚)
片长: 93分钟
又名: 冲锋飞车队 / 迷雾追魂手(台) / 冲锋追魂手 / 疯狂麦克斯 / 霹雳神探怒扫飞车党(港)
IMDb链接: tt0079501

疯狂的麦克斯的剧情简介 · · · · · ·
  在不远的未来,公路骑士们在道路上肆虐,所过之处留下疯狂破坏的痕迹。为了追逐盗取了警用车的“黑暗骑士”,警方付出了重大代价,幸有比骑士更加疯狂的麦克斯(梅尔·吉布森 Mel Gibson 饰)出场,迫使黑暗骑士车祸身亡。黑暗骑士的同伙们发誓报仇,他们降临小镇,要接回黑暗骑士的尸身,并且肆意凌虐弱者,麦克斯和搭档古斯(Steve Bisley 饰)抓获凶手后,却因为无人敢指认,只得容忍他们继续逍遥法外。古斯被公路骑士们抓到,身负重伤,而麦克斯的妻子杰西(琼妮·萨缪尔 Joanne Samuel 饰)也被他们恐吓骚扰,有“疯狂”之称的麦克斯不再隐忍,向骑士们展开回击……


截图




Video
ID                                       : 1
Format                                   : HEVC
Format/Info                              : High Efficiency Video Coding
Format profile                           : Main 10@L5@Main
Codec ID                                 : V_MPEGH/ISO/HEVC
Duration                                 : 1 h 33 min
Bit rate                                 : 32.3 Mb/s
Width                                    : 3 840 pixels
Height                                   : 1 640 pixels
Display aspect ratio                     : 2.35:1
Frame rate mode                          : Constant
Frame rate                               : 23.976 (24000/1001) FPS
Color space                              : YUV
Chroma subsampling                       : 4:2:0
Bit depth                                : 10 bits
Bits/(Pixel*Frame)                       : 0.214
Stream size                              : 21.0 GiB (87%)
Default                                  : Yes
Forced                                   : No
Color range                              : Limited
Color primaries                          : BT.2020
Transfer characteristics                 : PQ
Matrix coefficients                      : BT.2020 non-constant
Mastering display color primaries        : Display P3
Mastering display luminance              : min: 0.0050 cd/m2, max: 3999 cd/m2
Maximum Content Light Level              : 4000 cd/m2
Maximum Frame-Average Light Level        : 1000 cd/m2

Audio #1
ID                                       : 2
Format                                   : DTS
Format/Info                              : Digital Theater Systems
Format profile                           : MA / Core
Codec ID                                 : A_DTS
Duration                                 : 1 h 33 min
Bit rate mode                            : Variable / Constant
Bit rate                                 : 2 827 kb/s / 1 509 kb/s
Channel(s)                               : 6 channels
Channel positions                        : Front: L C R, Side: L R, LFE
Sampling rate                            : 48.0 kHz
Frame rate                               : 93.750 FPS (512 SPF)
Bit depth                                : 24 bits
Compression mode                         : Lossless / Lossy
Delay relative to video                  : 3 s 787 ms
Stream size                              : 1.84 GiB (8%)
Language                                 : English
Default                                  : Yes
Forced                                   : No

Audio #2
ID                                       : 3
Format                                   : DTS
Format/Info                              : Digital Theater Systems
Codec ID                                 : A_DTS
Duration                                 : 1 h 33 min
Bit rate mode                            : Constant
Bit rate                                 : 1 509 kb/s
Channel(s)                               : 6 channels
Channel positions                        : Front: L C R, Side: L R, LFE
Sampling rate                            : 48.0 kHz
Frame rate                               : 93.750 FPS (512 SPF)
Bit depth                                : 24 bits
Compression mode                         : Lossy
Delay relative to video                  : 3 s 787 ms
Stream size                              : 1 006 MiB (4%)
Language                                 : English
Default                                  : No
Forced                                   : No

Audio #3
ID                                       : 4
Format                                   : AC-3
Format/Info                              : Audio Coding 3
Codec ID                                 : A_AC3
Duration                                 : 1 h 33 min
Bit rate mode                            : Constant
Bit rate                                 : 224 kb/s
Channel(s)                               : 2 channels
Channel positions                        : Front: L R
Sampling rate                            : 48.0 kHz
Frame rate                               : 31.250 FPS (1536 SPF)
Bit depth                                : 16 bits
Compression mode                         : Lossy
Delay relative to video                  : 3 s 787 ms
Stream size                              : 149 MiB (1%)
Title                                    : Commentary
Language                                 : English
Service kind                             : Complete Main
Default                                  : No
Forced                                   : No

Audio #4
ID                                       : 5
Format                                   : AC-3
Format/Info                              : Audio Coding 3
Codec ID                                 : A_AC3
Duration                                 : 1 h 33 min
Bit rate mode                            : Constant
Bit rate                                 : 320 kb/s
Channel(s)                               : 1 channel
Channel positions                        : Front: C
Sampling rate                            : 48.0 kHz
Frame rate                               : 31.250 FPS (1536 SPF)
Bit depth                                : 16 bits
Compression mode                         : Lossy
Delay relative to video                  : 3 s 787 ms
Stream size                              : 213 MiB (1%)
Language                                 : French
Service kind                             : Complete Main
Default                                  : No
Forced                                   : No

Text #1
ID                                       : 6
Format                                   : PGS
Muxing mode                              : zlib
Codec ID                                 : S_HDMV/PGS
Codec ID/Info                            : Picture based subtitle format used on BDs/HD-DVDs
Duration                                 : 1 h 29 min
Bit rate                                 : 28.3 kb/s
Count of elements                        : 1906
Stream size                              : 18.0 MiB (0%)
Title                                    : English SDH
Language                                 : English
Default                                  : No
Forced                                   : No

Text #2
ID                                       : 7
Format                                   : PGS
Muxing mode                              : zlib
Codec ID                                 : S_HDMV/PGS
Codec ID/Info                            : Picture based subtitle format used on BDs/HD-DVDs
Duration                                 : 1 h 32 min
Bit rate                                 : 298 b/s
Count of elements                        : 26
Stream size                              : 202 KiB (0%)
Title                                    : French Forced
Language                                 : French
Default                                  : No
Forced                                   : No

Text #3
ID                                       : 8
Format                                   : UTF-8
Codec ID                                 : S_TEXT/UTF8
Codec ID/Info                            : UTF-8 Plain Text
Duration                                 : 1 h 31 min
Bit rate                                 : 29 b/s
Count of elements                        : 606
Stream size                              : 19.8 KiB (0%)
Title                                    : French
Language                                 : French
Default                                  : No
Forced                                   : No

Text #4
ID                                       : 9
Format                                   : PGS
Muxing mode                              : zlib
Codec ID                                 : S_HDMV/PGS
Codec ID/Info                            : Picture based subtitle format used on BDs/HD-DVDs
Duration                                 : 1 h 29 min
Bit rate                                 : 22.8 kb/s
Count of elements                        : 1512
Stream size                              : 14.6 MiB (0%)
Title                                    : Spanish
Language                                 : Spanish
Default                                  : No
Forced                                   : No


Mad.Max.1979.2160p.WEBRip.x265.10bit.HDR.DTS-HD.MA.5.1.torrent

61.07 KB, 下载次数: 8

QQ电影交流群: 498117193
您需要登录后才可以回帖 登录 | 注册

本版积分规则

BT探索  

GMT+8, 2018-10-24 08:52

Powered by Discuz! X3.2

© 2001-2013 Comsenz Inc.

快速回复 返回顶部 返回列表