BT探索

 找回密码
 注册
搜索
查看: 62|回复: 0

[HDR] 像素大战.Pixels.2015.2160p.WEBRip.x265.10bit.HDR.TrueHD.7.1.Atmos.23.86 GB

[复制链接]

3万

主题

4万

帖子

11万

影币

管理员

Rank: 8Rank: 8Rank: 8Rank: 8Rank: 8Rank: 8Rank: 8Rank: 8

积分
116953
注册时间
2010-9-1
最后登录
2018-5-28

Medal No.1Medal No.2Medal No.3Medal No.4Medal No.5Medal No.6Medal No.7Medal No.8Medal No.9Medal No.10

发表于 2018-5-15 09:49:36 | 显示全部楼层 |阅读模式
海报


导演: 克里斯·哥伦布
编剧: 提姆·赫利希 / 蒂莫斯·道灵 / 帕特里克·简
主演: 亚当·桑德勒 / 凯文·詹姆斯 / 米歇尔·莫纳汉 / 彼特·丁拉基 / 乔什·加德 / 布莱恩·考克斯 / 马特·林茨 / 肖恩·宾 / 简·科拉克斯基 / 丹·艾克罗伊德 / 艾菲恩·克洛科特 / 莱妮·卡赞 / 艾什莉·本森 / 玛莎·斯图尔特 / 丹尼斯·秋山 / 汤姆·麦卡锡 / 提姆·赫利希 / 杰姬·桑德勒 / 杰瑞德·桑德勒 / 威廉·S·泰勒 / 罗丝·洛林斯 / 塔克·斯莫尔伍德 / 塞蕾娜·威廉姆斯 / 艾伦·卡瓦特
类型: 喜剧 / 动作 / 科幻
官方网站: www.pixels-movie.com/site/
制片国家/地区: 美国 / 中国大陆
语言: 英语 / 印地语 / 日语
上映日期: 2015-09-15(中国大陆) / 2015-07-24(美国)
片长: 106分钟
又名: 世界大对战(台) / 屈机起格命(港) / 像素入侵 / 天煞:像素之战 / 像素之战
IMDb链接: tt2120120

像素大战的剧情简介 · · · · · ·
  21世纪某天,神秘外星人突然入侵地球。奇怪的是外星人全部以20世纪80年代所流行的像素电子游戏形象出现,凡是被它们碰过的物体、人类无一例外都被像素化。现任美国总统威尔·库珀(凯文·詹姆斯 Kevin James 饰)深感事态严重,连忙电话叫来的当年极为擅长街机游戏的玩伴山姆·布伦纳(亚当·桑德勒 Adam Sandler 饰)。在另一个怪鸡朋友勒德洛·莱门梢夫(乔什·加德 Josh Gad 饰)的指点下,他们似乎明白了外星人的真身。入侵接二连三袭来,这群大男孩找来曾经的死对头埃迪·普兰特(彼特·丁克拉奇 Peter Dinklage 饰),联合与伪装成游戏的外星人们展开3D像素大作战。
  地球危在旦夕,这可真不是能让人轻松以对的游戏……

像素大战的获奖情况
第36届金酸莓奖 最差影片(提名)
第17届美国青少年选择奖 最佳暑期电影男演员(提名) 亚当·桑德勒

截图





Video
ID                                       : 1
Format                                   : HEVC
Format/Info                              : High Efficiency Video Coding
Format profile                           : Main 10@L5@Main
Codec ID                                 : V_MPEGH/ISO/HEVC
Duration                                 : 1 h 45 min
Bit rate                                 : 25.4 Mb/s
Width                                    : 3 840 pixels
Height                                   : 1 608 pixels
Display aspect ratio                     : 2.40:1
Frame rate mode                          : Constant
Frame rate                               : 23.976 (24000/1001) FPS
Color space                              : YUV
Chroma subsampling                       : 4:2:0
Bit depth                                : 10 bits
Bits/(Pixel*Frame)                       : 0.171
Stream size                              : 18.7 GiB (79%)
Default                                  : Yes
Forced                                   : No
Color range                              : Limited
Color primaries                          : BT.2020
Transfer characteristics                 : PQ
Matrix coefficients                      : BT.2020 non-constant
Mastering display color primaries        : Display P3
Mastering display luminance              : min: 0.0050 cd/m2, max: 3999 cd/m2
Maximum Content Light Level              : 4000 cd/m2
Maximum Frame-Average Light Level        : 1000 cd/m2

Audio #1
ID                                       : 2
Format                                   : TrueHD
Format profile                           : TrueHD+Atmos / TrueHD
Codec ID                                 : A_TRUEHD
Duration                                 : 1 h 45 min
Bit rate mode                            : Variable
Bit rate                                 : 4 879 kb/s
Maximum bit rate                         : 8 745 kb/s
Channel(s)                               : Object Based / 8 channels
Channel positions                        : Object Based / Front: L C R, Side: L R, Back: L R, LFE
Sampling rate                            :  / 48.0 kHz
Frame rate                               : 1 200.000 FPS (40 SPF)
Compression mode                         : Lossless
Delay relative to video                  : 657 ms
Stream size                              : 3.61 GiB (15%)
Language                                 : English
Default                                  : Yes
Forced                                   : No

Audio #2
ID                                       : 3
Format                                   : AC-3
Format/Info                              : Audio Coding 3
Codec ID                                 : A_AC3
Duration                                 : 1 h 45 min
Bit rate mode                            : Constant
Bit rate                                 : 640 kb/s
Channel(s)                               : 6 channels
Channel positions                        : Front: L C R, Side: L R, LFE
Sampling rate                            : 48.0 kHz
Frame rate                               : 31.250 FPS (1536 SPF)
Bit depth                                : 16 bits
Compression mode                         : Lossy
Delay relative to video                  : 657 ms
Stream size                              : 484 MiB (2%)
Language                                 : English
Service kind                             : Complete Main
Default                                  : No
Forced                                   : No

Audio #3
ID                                       : 4
Format                                   : AC-3
Format/Info                              : Audio Coding 3
Codec ID                                 : A_AC3
Duration                                 : 1 h 45 min
Bit rate mode                            : Constant
Bit rate                                 : 640 kb/s
Channel(s)                               : 6 channels
Channel positions                        : Front: L C R, Side: L R, LFE
Sampling rate                            : 48.0 kHz
Frame rate                               : 31.250 FPS (1536 SPF)
Bit depth                                : 16 bits
Compression mode                         : Lossy
Delay relative to video                  : 657 ms
Stream size                              : 484 MiB (2%)
Language                                 : French
Service kind                             : Complete Main
Default                                  : No
Forced                                   : No

Audio #4
ID                                       : 5
Format                                   : AC-3
Format/Info                              : Audio Coding 3
Codec ID                                 : A_AC3
Duration                                 : 1 h 45 min
Bit rate mode                            : Constant
Bit rate                                 : 640 kb/s
Channel(s)                               : 6 channels
Channel positions                        : Front: L C R, Side: L R, LFE
Sampling rate                            : 48.0 kHz
Frame rate                               : 31.250 FPS (1536 SPF)
Bit depth                                : 16 bits
Compression mode                         : Lossy
Delay relative to video                  : 657 ms
Stream size                              : 484 MiB (2%)
Language                                 : Spanish
Service kind                             : Complete Main
Default                                  : No
Forced                                   : No

Text #1
ID                                       : 6
Format                                   : PGS
Muxing mode                              : zlib
Codec ID                                 : S_HDMV/PGS
Codec ID/Info                            : Picture based subtitle format used on BDs/HD-DVDs
Duration                                 : 1 h 40 min
Bit rate                                 : 54.9 kb/s
Count of elements                        : 3709
Stream size                              : 39.4 MiB (0%)
Language                                 : English
Default                                  : No
Forced                                   : No

Text #2
ID                                       : 7
Format                                   : PGS
Muxing mode                              : zlib
Codec ID                                 : S_HDMV/PGS
Codec ID/Info                            : Picture based subtitle format used on BDs/HD-DVDs
Duration                                 : 1 h 36 min
Bit rate                                 : 46.9 kb/s
Count of elements                        : 3025
Stream size                              : 32.3 MiB (0%)
Language                                 : English
Default                                  : No
Forced                                   : No

Text #3
ID                                       : 8
Format                                   : PGS
Muxing mode                              : zlib
Codec ID                                 : S_HDMV/PGS
Codec ID/Info                            : Picture based subtitle format used on BDs/HD-DVDs
Duration                                 : 1 h 44 min
Bit rate                                 : 33.0 kb/s
Count of elements                        : 2788
Stream size                              : 24.6 MiB (0%)
Language                                 : French
Default                                  : No
Forced                                   : No

Text #4
ID                                       : 9
Format                                   : PGS
Muxing mode                              : zlib
Codec ID                                 : S_HDMV/PGS
Codec ID/Info                            : Picture based subtitle format used on BDs/HD-DVDs
Duration                                 : 1 h 39 min
Bit rate                                 : 974 b/s
Count of elements                        : 86
Stream size                              : 709 KiB (0%)
Language                                 : French
Default                                  : No
Forced                                   : No

Text #5
ID                                       : 10
Format                                   : PGS
Muxing mode                              : zlib
Codec ID                                 : S_HDMV/PGS
Codec ID/Info                            : Picture based subtitle format used on BDs/HD-DVDs
Duration                                 : 1 h 44 min
Bit rate                                 : 39.1 kb/s
Count of elements                        : 3000
Stream size                              : 29.2 MiB (0%)
Language                                 : Spanish
Default                                  : No
Forced                                   : No


Pixels.2015.2160p.WEBRip.x265.10bit.HDR.TrueHD.7.1.Atmos.torrent

60.22 KB, 下载次数: 8

电影交流QQ群: 498117193
您需要登录后才可以回帖 登录 | 注册

本版积分规则

小黑屋|手机版|BT探索

GMT+8, 2018-5-28 16:05

Powered by Discuz! X3.2

© 2001-2013 Comsenz Inc.

快速回复 返回顶部 返回列表