BT探索

 找回密码
 注册
查看: 344|回复: 0

[HDR] 福尔摩斯:诡影游戏.2011.2160p.WEBRip.x265.10bit.HDR.DTS-HD.MA.5.1-GAS.36.05 GB

[复制链接]

3万

主题

4万

帖子

13万

影币

管理员

Rank: 8Rank: 8Rank: 8Rank: 8Rank: 8Rank: 8Rank: 8Rank: 8

积分
131029
注册时间
2010-9-1
最后登录
2018-8-18

Medal No.1Medal No.2Medal No.3Medal No.4Medal No.5Medal No.6Medal No.7Medal No.8Medal No.9Medal No.10

发表于 2018-5-15 09:53:49 | 显示全部楼层 |阅读模式
海报


导演: 盖·里奇
编剧: 阿瑟·柯南·道尔 / 基兰·马尔罗尼 / 米歇尔·马尔罗尼
主演: 小罗伯特·唐尼 / 裘德·洛 / 瑞秋·麦克亚当斯 / 劳米·拉佩斯 / 斯蒂芬·弗雷 / 凯利·蕾莉 / 杰瑞德·哈里斯 / 杰拉丁妮·詹姆斯 / 威廉·休斯顿 / 保罗·安德森
类型: 动作 / 悬疑 / 惊悚 / 犯罪 / 冒险
官方网站: sherlockholmes2.warnerbros.com
制片国家/地区: 美国
语言: 英语
上映日期: 2012-01-15(中国大陆) / 2011-12-16(美国)
片长: 129分钟
又名: 福尔摩斯:诡影游戏(台) / 神探福尔摩斯:诡影游戏(港) / 大侦探福尔摩斯2:暗影游戏 / 福尔摩斯2
IMDb链接: tt1515091

大侦探福尔摩斯2:诡影游戏的剧情简介 · · · · · ·
  奥地利皇储突然自杀案件,让沉寂6个月的福尔摩斯(小罗伯特·唐尼 Robert Downey Jr. 饰)再次启动。这次,福尔摩斯有了一个强有力的对手——智力上与福尔摩斯相当的莫里亚蒂教授(杰瑞德·哈里斯 Jared Harris 饰)。为了调查清楚皇储的自杀案件,福尔摩 斯与华生(裘德·洛 Jude Law 饰),在吉普赛占星师西姆(劳米·拉佩斯 Noomi Rapace 饰)的帮助下,和莫里亚蒂展开了在整个欧洲大陆上的较量,从英国到法国、德国……虽然被称为最聪明的人,但是莫里亚蒂教授仿佛能预知福尔摩斯的行踪,都能先一步福尔摩斯逃之夭夭。莫里亚蒂教授死亡名单上的人一个个被抹杀,历史可能就此被改编,面对如此强大的对手,福尔摩斯如何应对?

大侦探福尔摩斯2:诡影游戏的获奖情况
第14届美国青少年选择奖 最佳动作片(提名)
第14届美国青少年选择奖 最佳动作片男演员(提名) 小罗伯特·唐尼
第14届美国青少年选择奖 最佳动作片女演员(提名) 劳米·拉佩斯

截图





Video
ID                                       : 1
Format                                   : HEVC
Format/Info                              : High Efficiency Video Coding
Format profile                           : Main 10@L5@Main
Codec ID                                 : V_MPEGH/ISO/HEVC
Duration                                 : 2 h 8 min
Bit rate                                 : 34.0 Mb/s
Width                                    : 3 840 pixels
Height                                   : 2 160 pixels
Display aspect ratio                     : 16:9
Frame rate mode                          : Constant
Frame rate                               : 23.976 (24000/1001) FPS
Color space                              : YUV
Chroma subsampling                       : 4:2:0
Bit depth                                : 10 bits
Bits/(Pixel*Frame)                       : 0.171
Stream size                              : 30.6 GiB (85%)
Default                                  : Yes
Forced                                   : No
Color range                              : Limited
Color primaries                          : BT.2020
Transfer characteristics                 : PQ
Matrix coefficients                      : BT.2020 non-constant
Mastering display color primaries        : Display P3
Mastering display luminance              : min: 0.0050 cd/m2, max: 3999 cd/m2
Maximum Content Light Level              : 4000 cd/m2
Maximum Frame-Average Light Level        : 1000 cd/m2

Audio #1
ID                                       : 2
Format                                   : DTS
Format/Info                              : Digital Theater Systems
Format profile                           : MA / Core
Codec ID                                 : A_DTS
Duration                                 : 2 h 8 min
Bit rate mode                            : Variable / Constant
Bit rate                                 : 4 079 kb/s / 1 509 kb/s
Channel(s)                               : 6 channels
Channel positions                        : Front: L C R, Side: L R, LFE
Sampling rate                            : 48.0 kHz
Frame rate                               : 93.750 FPS (512 SPF)
Bit depth                                : 24 bits
Compression mode                         : Lossless / Lossy
Delay relative to video                  : 9 ms
Stream size                              : 3.67 GiB (10%)
Language                                 : English
Default                                  : Yes
Forced                                   : No

Audio #2
ID                                       : 3
Format                                   : DTS
Format/Info                              : Digital Theater Systems
Codec ID                                 : A_DTS
Duration                                 : 2 h 8 min
Bit rate mode                            : Constant
Bit rate                                 : 1 509 kb/s
Channel(s)                               : 6 channels
Channel positions                        : Front: L C R, Side: L R, LFE
Sampling rate                            : 48.0 kHz
Frame rate                               : 93.750 FPS (512 SPF)
Bit depth                                : 24 bits
Compression mode                         : Lossy
Delay relative to video                  : 5 ms
Stream size                              : 1.36 GiB (4%)
Language                                 : English
Default                                  : No
Forced                                   : No

Audio #3
ID                                       : 4
Format                                   : AC-3
Format/Info                              : Audio Coding 3
Codec ID                                 : A_AC3
Duration                                 : 2 h 8 min
Bit rate mode                            : Constant
Bit rate                                 : 448 kb/s
Channel(s)                               : 6 channels
Channel positions                        : Front: L C R, Side: L R, LFE
Sampling rate                            : 48.0 kHz
Frame rate                               : 31.250 FPS (1536 SPF)
Bit depth                                : 16 bits
Compression mode                         : Lossy
Delay relative to video                  : 9 ms
Stream size                              : 412 MiB (1%)
Language                                 : French
Service kind                             : Complete Main
Default                                  : No
Forced                                   : No

Text #1
ID                                       : 5
Format                                   : PGS
Muxing mode                              : zlib
Codec ID                                 : S_HDMV/PGS
Codec ID/Info                            : Picture based subtitle format used on BDs/HD-DVDs
Duration                                 : 2 h 8 min
Bit rate                                 : 28.7 kb/s
Count of elements                        : 2900
Stream size                              : 26.3 MiB (0%)
Language                                 : English
Default                                  : No
Forced                                   : No

Text #2
ID                                       : 6
Format                                   : UTF-8
Codec ID                                 : S_TEXT/UTF8
Codec ID/Info                            : UTF-8 Plain Text
Duration                                 : 1 h 52 min
Bit rate                                 : 0 b/s
Count of elements                        : 17
Stream size                              : 306 Bytes (0%)
Title                                    : forced
Language                                 : French
Default                                  : No
Forced                                   : No

Text #3
ID                                       : 7
Format                                   : UTF-8
Codec ID                                 : S_TEXT/UTF8
Codec ID/Info                            : UTF-8 Plain Text
Duration                                 : 2 h 8 min
Bit rate                                 : 45 b/s
Count of elements                        : 1176
Stream size                              : 43.1 KiB (0%)
Language                                 : French
Default                                  : No
Forced                                   : No


Sherlock.Holmes.A.Game.of.Shadows.2011.2160p.WEBRip.x265.10bit.HDR.DTS-HD.MA.5.1.torrent

90.73 KB, 下载次数: 21

电影交流QQ群: 498117193
您需要登录后才可以回帖 登录 | 注册

本版积分规则

BT探索

GMT+8, 2018-8-19 18:12

Powered by Discuz! X3.2

© 2001-2013 Comsenz Inc.

快速回复 返回顶部 返回列表