BT探索

 找回密码
 注册
搜索
查看: 112|回复: 1

[欧美] 勇敢的心.Braveheart.1995.1080p.BluRay.x264.TrueHD.7.1.Atmos.23.60 GB

[复制链接]

3万

主题

4万

帖子

11万

影币

管理员

Rank: 8Rank: 8Rank: 8Rank: 8Rank: 8Rank: 8Rank: 8Rank: 8

积分
116666
注册时间
2010-9-1
最后登录
2018-5-26

Medal No.1Medal No.2Medal No.3Medal No.4Medal No.5Medal No.6Medal No.7Medal No.8Medal No.9Medal No.10

发表于 2018-5-16 12:05:26 | 显示全部楼层 |阅读模式
海报


导演: 梅尔·吉布森
编剧: 兰道尔·华莱士
主演: 梅尔·吉布森 / 苏菲·玛索 / 布莱恩·考克斯 / 詹姆斯·卡沙莫 / 辛·劳洛 / 凯瑟琳·麦克马克 / 安古斯·麦克菲登
类型: 剧情 / 动作 / 传记 / 历史 / 战争
制片国家/地区: 美国
语言: 英语 / 法语 / 拉丁语 / 苏格兰盖尔语
上映日期: 1995-05-24
片长: 177 分钟
又名: 惊世未了缘(港) / 梅尔吉勃逊之英雄本色(台)
IMDb链接: tt0112573

勇敢的心的剧情简介 · · · · · ·
  威廉•华莱士童年时,其父、苏格兰民族英雄马索•华莱士在与英军的斗争中牺牲,他开始接受父亲好友的指导,学习苏格兰文化和武术。青年华莱士(梅尔•吉布森)学成回到故乡,向美丽的少女梅伦求婚,不想梅伦被英军抢去且遭杀害。在广大村民“英雄之后”的呼声中,华莱士率众揭竿起义,并与苏格兰贵族罗伯结成联盟,但不久他发现,苏格兰贵族考虑的只是自身的利益。
  英王为缓和局势,派伊莎贝拉(苏菲•玛索)前去和华莱士谈判,由于英王只想收买华莱士,根本不顾苏格兰人民的自由和平等,谈判失败,但这一切并不为伊莎贝拉所知。伊莎贝拉归国后发现事情真相,且知晓英王正策划阴招,忙送信给华莱士,而两人的爱情,也在战争与阴谋中悄然滋生。

勇敢的心的获奖情况
第68届奥斯卡金像奖 最佳影片 艾伦·拉德二世 / 梅尔·吉布森 / Bruce Davey
第68届奥斯卡金像奖 最佳导演 梅尔·吉布森
第49届英国电影学院奖 电影奖 最佳导演(提名) 梅尔·吉布森

截图





Video
ID                                       : 1
Format                                   : AVC
Format/Info                              : Advanced Video Codec
Format profile                           : High@L4.1
Format settings                          : CABAC / 5 Ref Frames
Format settings, CABAC                   : Yes
Format settings, ReFrames                : 5 frames
Codec ID                                 : V_MPEG4/ISO/AVC
Duration                                 : 2 h 57 min
Bit rate                                 : 13.2 Mb/s
Width                                    : 1 920 pixels
Height                                   : 816 pixels
Display aspect ratio                     : 2.35:1
Frame rate mode                          : Constant
Frame rate                               : 23.976 (24000/1001) FPS
Color space                              : YUV
Chroma subsampling                       : 4:2:0
Bit depth                                : 8 bits
Scan type                                : Progressive
Bits/(Pixel*Frame)                       : 0.351
Stream size                              : 16.4 GiB (69%)
Title                                    : Braveheart.1995.1080p.BluRay.x264.TrueHD.7.1.Atmos-SWTYBLZ
Writing library                          : x264 core 148 r2748 97eaef2
Encoding settings                        : cabac=1 / ref=5 / deblock=1:-1:-1 / analyse=0x3:0x133 / me=umh / subme=10 / psy=1 / psy_rd=1.00:0.15 / mixed_ref=1 / me_range=48 / chroma_me=1 / trellis=2 / 8x8dct=1 / cqm=0 / deadzone=21,11 / fast_pskip=1 / chroma_qp_offset=-3 / threads=25 / lookahead_threads=4 / sliced_threads=0 / nr=0 / decimate=0 / interlaced=0 / bluray_compat=0 / constrained_intra=0 / bframes=8 / b_pyramid=2 / b_adapt=2 / b_bias=0 / direct=3 / weightb=1 / open_gop=0 / weightp=2 / keyint=250 / keyint_min=23 / scenecut=40 / intra_refresh=0 / rc_lookahead=60 / rc=crf / mbtree=1 / crf=19.0 / qcomp=0.60 / qpmin=0 / qpmax=69 / qpstep=4 / ip_ratio=1.40 / aq=1:1.00
Default                                  : Yes
Forced                                   : No

Audio #1
ID                                       : 2
Format                                   : TrueHD
Format profile                           : TrueHD+Atmos / TrueHD
Codec ID                                 : A_TRUEHD
Duration                                 : 2 h 57 min
Bit rate mode                            : Variable
Bit rate                                 : 5 106 kb/s
Maximum bit rate                         : 8 013 kb/s
Channel(s)                               : Object Based / 8 channels
Channel positions                        : Object Based / Front: L C R, Side: L R, Back: L R, LFE
Sampling rate                            :  / 48.0 kHz
Frame rate                               : 1 200.000 FPS (40 SPF)
Compression mode                         : Lossless
Delay relative to video                  : 2 s 169 ms
Stream size                              : 6.34 GiB (27%)
Title                                    : Braveheart.1995.1080p.BluRay.x264.TrueHD.7.1.Atmos-SWTYBLZ
Language                                 : English
Default                                  : Yes
Forced                                   : No

Audio #2
ID                                       : 3
Format                                   : AC-3
Format/Info                              : Audio Coding 3
Codec ID                                 : A_AC3
Duration                                 : 2 h 57 min
Bit rate mode                            : Constant
Bit rate                                 : 640 kb/s
Channel(s)                               : 6 channels
Channel positions                        : Front: L C R, Side: L R, LFE
Sampling rate                            : 48.0 kHz
Frame rate                               : 31.250 FPS (1536 SPF)
Bit depth                                : 16 bits
Compression mode                         : Lossy
Delay relative to video                  : 2 s 169 ms
Stream size                              : 813 MiB (3%)
Title                                    : Braveheart.1995.1080p.BluRay.x264.TrueHD.7.1.Atmos-SWTYBLZ
Language                                 : English
Service kind                             : Complete Main
Default                                  : No
Forced                                   : No

Text #1
ID                                       : 4
Format                                   : UTF-8
Codec ID                                 : S_TEXT/UTF8
Codec ID/Info                            : UTF-8 Plain Text
Duration                                 : 2 h 48 min
Bit rate                                 : 30 b/s
Count of elements                        : 1260
Stream size                              : 37.8 KiB (0%)
Title                                    : English-SRT
Language                                 : English
Default                                  : Yes
Forced                                   : No

Text #2
ID                                       : 5
Format                                   : PGS
Muxing mode                              : zlib
Codec ID                                 : S_HDMV/PGS
Codec ID/Info                            : Picture based subtitle format used on BDs/HD-DVDs
Duration                                 : 2 h 48 min
Bit rate                                 : 18.9 kb/s
Count of elements                        : 2520
Stream size                              : 22.8 MiB (0%)
Title                                    : English-PGS
Language                                 : English
Default                                  : No
Forced                                   : No

Text #3
ID                                       : 6
Format                                   : PGS
Muxing mode                              : zlib
Codec ID                                 : S_HDMV/PGS
Codec ID/Info                            : Picture based subtitle format used on BDs/HD-DVDs
Duration                                 : 2 h 48 min
Bit rate                                 : 21.6 kb/s
Count of elements                        : 2846
Stream size                              : 26.0 MiB (0%)
Title                                    : English-SDH-PGS
Language                                 : English
Default                                  : No
Forced                                   : No

Text #4
ID                                       : 7
Format                                   : PGS
Muxing mode                              : zlib
Codec ID                                 : S_HDMV/PGS
Codec ID/Info                            : Picture based subtitle format used on BDs/HD-DVDs
Duration                                 : 2 h 49 min
Bit rate                                 : 19.7 kb/s
Count of elements                        : 2536
Stream size                              : 23.9 MiB (0%)
Title                                    : French-PGS
Language                                 : French
Default                                  : No
Forced                                   : No

Text #5
ID                                       : 8
Format                                   : PGS
Muxing mode                              : zlib
Codec ID                                 : S_HDMV/PGS
Codec ID/Info                            : Picture based subtitle format used on BDs/HD-DVDs
Duration                                 : 2 h 49 min
Bit rate                                 : 18.0 kb/s
Count of elements                        : 2600
Stream size                              : 21.9 MiB (0%)
Title                                    : Spanish-PGS
Language                                 : Spanish
Default                                  : No
Forced                                   : No

Menu
00:00:00.000                             : en:Chapter 1
00:07:25.528                             : en:Chapter 2
00:16:24.441                             : en:Chapter 3
00:22:00.694                             : en:Chapter 4
00:34:16.888                             : en:Chapter 5
00:39:49.678                             : en:Chapter 6
00:56:04.986                             : en:Chapter 7
01:00:01.264                             : en:Chapter 8
01:07:28.044                             : en:Chapter 9
01:11:51.932                             : en:Chapter 10
01:19:01.528                             : en:Chapter 11
01:33:03.202                             : en:Chapter 12
01:43:44.718                             : en:Chapter 13
01:53:55.453                             : en:Chapter 14
01:58:58.464                             : en:Chapter 15
02:17:15.477                             : en:Chapter 16
02:24:18.900                             : en:Chapter 17
02:28:49.795                             : en:Chapter 18
02:34:12.409                             : en:Chapter 19
02:36:32.091                             : en:Chapter 20
02:46:53.878                             : en:Chapter 21
02:50:43.066                             : en:Chapter 22



Braveheart.1995.1080p.BluRay.x264.TrueHD.7.1.Atmos.torrent

59.54 KB, 下载次数: 16

电影交流QQ群: 498117193

0

主题

211

帖子

120

影币

影迷

Rank: 2Rank: 2

积分
120
注册时间
2011-8-25
最后登录
2018-5-22
发表于 2018-5-16 15:29:33 | 显示全部楼层
感谢楼主分享精彩好看的电影
电影交流QQ群: 498117193
您需要登录后才可以回帖 登录 | 注册

本版积分规则

小黑屋|手机版|BT探索

GMT+8, 2018-5-27 09:19

Powered by Discuz! X3.2

© 2001-2013 Comsenz Inc.

快速回复 返回顶部 返回列表