BT探索

 找回密码
 注册
搜索
查看: 77|回复: 1

[欧美] 亚历山大大帝.Alexander.2004.Ultimate.Cut.1080p.BluRay.x264.DTS-FGT.21.44 GB

[复制链接]

3万

主题

4万

帖子

11万

影币

管理员

Rank: 8Rank: 8Rank: 8Rank: 8Rank: 8Rank: 8Rank: 8Rank: 8

积分
116953
注册时间
2010-9-1
最后登录
2018-5-28

Medal No.1Medal No.2Medal No.3Medal No.4Medal No.5Medal No.6Medal No.7Medal No.8Medal No.9Medal No.10

发表于 2018-5-17 13:46:59 | 显示全部楼层 |阅读模式
海报


导演: 奥利佛·斯通
编剧: 奥利佛·斯通 / 克里斯托弗·凯尔
主演: 科林·法瑞尔 / 安吉丽娜·朱莉 / 方·基默 / 安东尼·霍普金斯 / 杰瑞德·莱托 / 罗莎里奥·道森 / 乔纳森·莱斯·梅耶斯 / 克里斯托弗·普卢默
类型: 剧情 / 动作 / 爱情 / 传记 / 历史 / 战争 / 冒险
官方网站: http://www.alexanderthemovie.com/
制片国家/地区: 美国 / 德国 / 荷兰 / 法国 / 英国 / 意大利
语言: 英语
上映日期: 2004-11-24(美国)
片长: 175分钟 / 167分钟(导演剪辑版) / 214分钟(final cut/第四剪辑版)
又名: Alejandro Magno
IMDb链接: tt0346491

亚历山大大帝的剧情简介 · · · · · ·
  本片拍摄耗时94天,而男主角柯林·法瑞尔在拍摄期间曾经摔断手臂和摔伤脚踝。
  影片讲述了Alexander(柯林·法瑞尔 Colin Farrell 饰)年轻时的梦想、荣耀与冒险生活,他征服世界后的孤独生活以及神秘的死亡。他与将军Hephaistion(杰瑞德·莱托 Jared Leto 饰)不寻常的关系也得意展现。Alexander的母亲(安吉丽娜·朱莉 Angelina Jolie 饰)也在他的生命中起到不同凡响的影响力。
  亚历山大自幼聪颖过人,曾受教于亚利斯多德,稍长即被授予首府总督之职,并以平定山贼有功而任命为马其顿大军统帅,随父横扫希腊城邦之乱。融合东西文化,鼓励民族间通婚,并倡导民族间地位平等,讲希腊思想律法散布各地,开创希腊化时代文化,死时却年仅33岁。

截图




Video
ID                                       : 1
Format                                   : AVC
Format/Info                              : Advanced Video Codec
Format profile                           : High@L4.1
Format settings, CABAC                   : Yes
Format settings, ReFrames                : 5 frames
Codec ID                                 : V_MPEG4/ISO/AVC
Duration                                 : 3h 26mn
Bit rate                                 : 13.0 Mbps
Width                                    : 1 920 pixels
Height                                   : 800 pixels
Display aspect ratio                     : 2.40:1
Frame rate mode                          : Constant
Frame rate                               : 23.976 (24000/1001) fps
Color space                              : YUV
Chroma subsampling                       : 4:2:0
Bit depth                                : 8 bits
Scan type                                : Progressive
Bits/(Pixel*Frame)                       : 0.354
Stream size                              : 18.8 GiB (88%)
Writing library                          : x264 core 146 r2538kMod 121396c
Encoding settings                        : cabac=1 / ref=5 / deblock=1:-3:-3 / analyse=0x3:0x113 / me=umh / subme=11 / psy=1 / fade_compensate=0.00 / psy_rd=1.00:0.00 / mixed_ref=1 / me_range=32 / chroma_me=1 / trellis=2 / 8x8dct=1 / cqm=0 / deadzone=21,11 / fast_pskip=0 / chroma_qp_offset=-3 / threads=12 / lookahead_threads=3 / sliced_threads=0 / nr=0 / decimate=1 / interlaced=0 / bluray_compat=0 / constrained_intra=0 / fgo=0 / bframes=12 / b_pyramid=2 / b_adapt=2 / b_bias=0 / direct=3 / weightb=1 / open_gop=0 / weightp=2 / keyint=230 / keyint_min=23 / scenecut=40 / intra_refresh=0 / rc_lookahead=40 / rc=crf / mbtree=0 / crf=17.0000 / qcomp=0.65 / qpmin=0 / qpmax=69 / qpstep=4 / vbv_maxrate=50000 / vbv_bufsize=62500 / crf_max=0.0 / nal_hrd=none / filler=0 / ip_ratio=1.40 / pb_ratio=1.30 / aq=3:0.85
Language                                 : English
Default                                  : Yes
Forced                                   : No

Audio
ID                                       : 2
Format                                   : DTS
Format/Info                              : Digital Theater Systems
Mode                                     : 16
Format settings, Endianness              : Big
Codec ID                                 : A_DTS
Duration                                 : 3h 26mn
Bit rate mode                            : Constant
Bit rate                                 : 1 509 Kbps
Channel(s)                               : 6 channels
Channel positions                        : Front: L C R, Side: L R, LFE
Sampling rate                            : 48.0 KHz
Frame rate                               : 93.750 fps (512 spf)
Bit depth                                : 24 bits
Compression mode                         : Lossy
Stream size                              : 2.18 GiB (10%)
Language                                 : English
Default                                  : Yes
Forced                                   : No

Text #1
ID                                       : 3
Format                                   : UTF-8
Codec ID                                 : S_TEXT/UTF8
Codec ID/Info                            : UTF-8 Plain Text
Language                                 : English
Default                                  : No
Forced                                   : No

Text #2
ID                                       : 4
Format                                   : UTF-8
Codec ID                                 : S_TEXT/UTF8
Codec ID/Info                            : UTF-8 Plain Text
Title                                    : SDH
Language                                 : English
Default                                  : No
Forced                                   : No

Menu
00:00:00.000                             : en:00:00:00.000
00:04:07.164                             : en:00:04:07.164
00:07:51.346                             : en:00:07:51.346
00:08:37.183                             : en:00:08:37.183
00:12:03.848                             : en:00:12:03.848
00:19:12.151                             : en:00:19:12.151
00:25:06.296                             : en:00:25:06.296
00:31:02.027                             : en:00:31:02.027
00:33:17.662                             : en:00:33:17.662
00:37:15.066                             : en:00:37:15.066
00:44:14.777                             : en:00:44:14.777
00:49:46.233                             : en:00:49:46.233
00:55:52.015                             : en:00:55:52.015
01:00:09.773                             : en:01:00:09.773
01:03:22.132                             : en:01:03:22.132
01:05:54.450                             : en:01:05:54.450
01:08:09.794                             : en:01:08:09.794
01:13:37.413                             : en:01:13:37.413
01:15:49.295                             : en:01:15:49.295
01:22:36.577                             : en:01:22:36.577
01:27:53.101                             : en:01:27:53.101
01:31:51.089                             : en:01:31:51.089
01:37:04.360                             : en:01:37:04.360
01:43:58.315                             : en:01:43:58.315
01:50:15.025                             : en:01:50:15.025
01:55:36.680                             : en:01:55:36.680
01:59:54.687                             : en:01:59:54.687
02:01:25.278                             : en:02:01:25.278
02:05:46.497                             : en:02:05:46.497
02:09:24.173                             : en:02:09:24.173
02:15:25.826                             : en:02:15:25.826
02:18:26.507                             : en:02:18:26.507
02:22:32.377                             : en:02:22:32.377
02:31:05.765                             : en:02:31:05.765
02:37:33.694                             : en:02:37:33.694
02:38:57.737                             : en:02:38:57.737
02:44:26.523                             : en:02:44:26.523
02:50:10.700                             : en:02:50:10.700
02:55:44.701                             : en:02:55:44.701
02:59:49.612                             : en:02:59:49.612
03:01:09.650                             : en:03:01:09.650
03:02:54.380                             : en:03:02:54.380
03:06:55.830                             : en:03:06:55.830
03:09:29.358                             : en:03:09:29.358
03:15:33.347                             : en:03:15:33.347
03:18:43.995                             : en:03:18:43.995


Alexander.2004.Ultimate.Cut.1080p.BluRay.x264.DTS.torrent

54.22 KB, 下载次数: 16

电影交流QQ群: 498117193

0

主题

37

帖子

47

影币

观众

Rank: 1

积分
47
注册时间
2018-4-19
最后登录
2018-5-28
发表于 2018-5-19 07:16:34 | 显示全部楼层
可以当历史教科书来看!
电影交流QQ群: 498117193
您需要登录后才可以回帖 登录 | 注册

本版积分规则

小黑屋|手机版|BT探索

GMT+8, 2018-5-28 15:57

Powered by Discuz! X3.2

© 2001-2013 Comsenz Inc.

快速回复 返回顶部 返回列表