BT探索

 找回密码
 注册
搜索
查看: 59|回复: 0

[欧美] 黄昏双镖客.For.a.Few.Dollars.More.1965.1080p.BluRay.x264.DD5.1-FGT.20.14 GB

[复制链接]

3万

主题

4万

帖子

11万

影币

管理员

Rank: 8Rank: 8Rank: 8Rank: 8Rank: 8Rank: 8Rank: 8Rank: 8

积分
116953
注册时间
2010-9-1
最后登录
2018-5-28

Medal No.1Medal No.2Medal No.3Medal No.4Medal No.5Medal No.6Medal No.7Medal No.8Medal No.9Medal No.10

发表于 2018-5-17 13:53:04 | 显示全部楼层 |阅读模式
海报


导演: 赛尔乔·莱翁内
编剧: 富尔维奥·莫尔塞拉 / 卢恰诺·温琴佐尼 / 赛尔乔·莱翁内 / 费尔南多·迪·莱沃 / 赛尔乔·多纳蒂
主演: 克林特·伊斯特伍德 / 李·范·克里夫 / 吉安·玛丽亚·沃隆特 / 克劳斯·金斯基 / 约瑟夫·埃格 / 马里奥·布雷加 / 路易吉·皮斯蒂利 / 阿尔多·桑布雷利 / 贝尼托·斯特凡内利 / 罗伯托·卡马迭尔
类型: 西部
制片国家/地区: 意大利 / 西班牙 / 西德
语言: 意大利语 / 英语
上映日期: 1965-12-18
片长: 132 分钟
又名: 独行侠江湖伏霸(港) / 金钱与仇恨 / 赏金杀手 / 为钱卖命 / 为了更多的几块钱 / For a Few Dollars More
IMDb链接: tt0059578

黄昏双镖客的剧情简介 · · · · · ·
  Indio(吉昂·马利亚·沃隆特 Gian Maria Volonté 饰)是一个穷凶极恶的通缉犯,他伙同他的团伙屡次作案,他有一个怀表,每次大开杀戒之前都会看一看表,表上有一个女人的照片。赏金猎人Manco(克林特·伊斯特伍德 Clint Eastwood 饰)正在追捕Indio,而另外一个赏金猎人Colonel Douglas Mortimer(李·范·克里夫 Lee Van Cleef 饰)也在追捕同样的目标。两人一开始都看对方不顺眼,后来才决定一起追捕Indio。两人得知Indio准备去抢劫银行,于是定下计谋,让Monco加入Indio的团队,之后再和Mortimer来个里应外合。后来两人不慎被Indio所抓获。到底Manco和Mortimer能否除掉Indio,而Indio怀表里那个女人又和Mortimer有何联系?
  本片为意大利导演赛尔乔·莱翁内 Sergio Leone执导的“通心粉”西部片。

截图




Video
ID                                       : 1
Format                                   : AVC
Format/Info                              : Advanced Video Codec
Format profile                           : High@L4.1
Format settings, CABAC                   : Yes
Format settings, ReFrames                : 5 frames
Codec ID                                 : V_MPEG4/ISO/AVC
Duration                                 : 2h 12mn
Bit rate                                 : 20.7 Mbps
Width                                    : 1 916 pixels
Height                                   : 814 pixels
Display aspect ratio                     : 2.35:1
Frame rate mode                          : Constant
Frame rate                               : 23.976 (24000/1001) fps
Color space                              : YUV
Chroma subsampling                       : 4:2:0
Bit depth                                : 8 bits
Scan type                                : Progressive
Bits/(Pixel*Frame)                       : 0.552
Stream size                              : 19.1 GiB (95%)
Title                                    : For.a.Few.Dollars.More.1965.UNCUT.1080p.BluRay.x264.DD5.1-FGT
Writing library                          : x264 core 130 r2273 b3065e6
Encoding settings                        : cabac=1 / ref=5 / deblock=1:-3:-3 / analyse=0x3:0x133 / me=tesa / subme=10 / psy=1 / psy_rd=1.00:0.00 / mixed_ref=1 / me_range=24 / chroma_me=1 / trellis=2 / 8x8dct=1 / cqm=0 / deadzone=21,11 / fast_pskip=0 / chroma_qp_offset=-2 / threads=12 / lookahead_threads=2 / sliced_threads=0 / nr=0 / decimate=0 / interlaced=0 / bluray_compat=0 / constrained_intra=0 / bframes=8 / b_pyramid=2 / b_adapt=2 / b_bias=0 / direct=3 / weightb=1 / open_gop=0 / weightp=2 / keyint=250 / keyint_min=23 / scenecut=40 / intra_refresh=0 / rc_lookahead=60 / rc=crf / mbtree=1 / crf=20.0 / qcomp=0.75 / qpmin=0 / qpmax=69 / qpstep=4 / vbv_maxrate=50000 / vbv_bufsize=62500 / crf_max=0.0 / nal_hrd=none / ip_ratio=1.40 / aq=1:0.50
Language                                 : English
Default                                  : Yes
Forced                                   : No

Audio
ID                                       : 2
Format                                   : AC-3
Format/Info                              : Audio Coding 3
Mode extension                           : CM (complete main)
Format settings, Endianness              : Big
Codec ID                                 : A_AC3
Duration                                 : 2h 12mn
Bit rate mode                            : Constant
Bit rate                                 : 640 Kbps
Channel(s)                               : 6 channels
Channel positions                        : Front: L C R, Side: L R, LFE
Sampling rate                            : 48.0 KHz
Frame rate                               : 31.250 fps (1536 spf)
Compression mode                         : Lossy
Stream size                              : 608 MiB (3%)
Title                                    : For.a.Few.Dollars.More.1965.UNCUT.1080p.BluRay.x264.DD5.1-FGT
Language                                 : English
Default                                  : Yes
Forced                                   : No

Text
ID                                       : 3
Format                                   : UTF-8
Codec ID                                 : S_TEXT/UTF8
Codec ID/Info                            : UTF-8 Plain Text
Language                                 : English
Default                                  : Yes
Forced                                   : No



For.a.Few.Dollars.More.1965.1080p.BluRay.x264.DD5.1.torrent

51 KB, 下载次数: 10

电影交流QQ群: 498117193
您需要登录后才可以回帖 登录 | 注册

本版积分规则

小黑屋|手机版|BT探索

GMT+8, 2018-5-28 15:57

Powered by Discuz! X3.2

© 2001-2013 Comsenz Inc.

快速回复 返回顶部 返回列表