BT探索

 找回密码
 注册
搜索
查看: 100|回复: 0

[日韩] 南瓜与蛋黄酱.2017.JAPANESE.1080p.BluRay.x264.DTS-WiKi.日语中字.9.22 GB

[复制链接]

3万

主题

4万

帖子

11万

影币

管理员

Rank: 8Rank: 8Rank: 8Rank: 8Rank: 8Rank: 8Rank: 8Rank: 8

积分
116953
注册时间
2010-9-1
最后登录
2018-5-28

Medal No.1Medal No.2Medal No.3Medal No.4Medal No.5Medal No.6Medal No.7Medal No.8Medal No.9Medal No.10

发表于 2018-5-17 13:57:51 | 显示全部楼层 |阅读模式
海报


导演: 冨永昌敬
编剧: 冨永昌敬
主演: 臼田麻美 / 小田切让 / 太贺 / 浅香航大 / 若叶龙也 / 大友律 / 清水久留巳 / 冈田纱里 / 光石研
类型: 剧情
官方网站: kabomayo.com
制片国家/地区: 日本
语言: 日语
上映日期: 2017-11-11(日本)
片长: 93分钟
又名: 南瓜与美乃滋
IMDb链接: tt6964896

南瓜与蛋黄酱的剧情简介 · · · · · ·
  土田(臼田麻美 饰)的前男友荻尾(小田切让 饰)是个渣男,跟《日在校园》伊藤诚一样到处沾花捻草,土田还为他堕过胎。在身心俱损的情况下,她被现在的男友阿诚(太贺 饰)所拯救。阿诚希望当上音乐家,但整天蹲在家里,生活的重担就落在了土田身上。为了生活,土田不得不去当陪酒女。但与此同时,土田又对前男友念念不忘。


截图






[size=10.6667px][url=][-] Hide MediaInfo[/url]
Video
ID                                       : 1
Format                                   : AVC
Format/Info                              : Advanced Video Codec
Format profile                           : High@L4.1
Format settings                          : CABAC / 5 Ref Frames
Format settings, CABAC                   : Yes
Format settings, ReFrames                : 5 frames
Codec ID                                 : V_MPEG4/ISO/AVC
Duration                                 : 1 h 33 min
Bit rate                                 : 12.4 Mb/s
Width                                    : 1 920 pixels
Height                                   : 804 pixels
Display aspect ratio                     : 2.40:1
Frame rate mode                          : Constant
Frame rate                               : 23.976 (24000/1001) FPS
Color space                              : YUV
Chroma subsampling                       : 4:2:0
Bit depth                                : 8 bits
Scan type                                : Progressive
Bits/(Pixel*Frame)                       : 0.334
Stream size                              : 8.05 GiB (87%)
Writing library                          : x264 core 142 r2431+42 c69a006 tMod [8-bit@all X86_64]
Encoding settings                        : cabac=1 / ref=5 / deblock=1:-3:-3 / analyse=0x3:0x133 / me=umh / subme=11 / psy=1 / fade_compensate=0.00 / psy_rd=1.00:0.05 / mixed_ref=1 / me_range=64 / chroma_me=1 / trellis=2 / 8x8dct=1 / cqm=0 / deadzone=21,11 / fast_pskip=0 / chroma_qp_offset=-1 / threads=12 / lookahead_threads=3 / sliced_threads=0 / nr=0 / decimate=0 / interlaced=0 / bluray_compat=0 / constrained_intra=0 / fgo=0 / bframes=10 / b_pyramid=2 / b_adapt=2 / b_bias=0 / direct=3 / weightb=1 / open_gop=0 / weightp=2 / keyint=250 / keyint_min=23 / scenecut=40 / intra_refresh=0 / rc_lookahead=120 / rc=crf / mbtree=0 / crf=16.0000 / qcomp=0.70 / qpmin=0:0:0 / qpmax=69:69:69 / qpstep=4 / vbv_maxrate=50000 / vbv_bufsize=50000 / crf_max=0.0 / nal_hrd=none / filler=0 / ip_ratio=1.40 / pb_ratio=1.30 / aq=1:0.80 / aq-sensitivity=10.00 / aq-factor=1.00:1.00:1.00 / aq2=0 / aq3=0
Language                                 : Japanese
Default                                  : Yes
Forced                                   : No
Color range                              : Limited
Matrix coefficients                      : BT.709

Audio
ID                                       : 2
Format                                   : DTS
Format/Info                              : Digital Theater Systems
Codec ID                                 : A_DTS
Duration                                 : 1 h 33 min
Bit rate mode                            : Constant
Bit rate                                 : 1 509 kb/s
Channel(s)                               : 6 channels
Channel positions                        : Front: L C R, Side: L R, LFE
Sampling rate                            : 48.0 kHz
Frame rate                               : 93.750 FPS (512 SPF)
Bit depth                                : 16 bits
Compression mode                         : Lossy
Stream size                              : 1 005 MiB (11%)
Language                                 : Japanese
Default                                  : Yes
Forced                                   : No

Text
ID                                       : 3
Format                                   : ASS
Codec ID                                 : S_TEXT/ASS
Codec ID/Info                            : Advanced Sub Station Alpha
Compression mode                         : Lossless
Title                                    : CHT
Language                                 : Chinese
Default                                  : No
Forced                                   : No

Menu
00:00:00.000                             : en:00:00:00.000
00:00:30.030                             : en:00:00:30.030
00:12:28.915                             : en:00:12:28.915
00:22:04.573                             : en:00:22:04.573
00:31:53.495                             : en:00:31:53.495
00:41:20.353                             : en:00:41:20.353
00:51:06.605                             : en:00:51:06.605
00:58:06.274                             : en:00:58:06.274
01:05:30.093                             : en:01:05:30.093
01:14:42.395                             : en:01:14:42.395
01:23:21.914                             : en:01:23:21.914



南瓜与蛋黄酱.2017.JAPANESE.1080p.BluRay.x264.DTS-WiKi.日语中字.9.22 GB.torrent

92.72 KB, 下载次数: 12

南瓜与蛋黄酱.2017.JAPANESE.1080p.BluRay.x264.DTS-WiKi.日语中字.9.22 GB

电影交流QQ群: 498117193
您需要登录后才可以回帖 登录 | 注册

本版积分规则

小黑屋|手机版|BT探索

GMT+8, 2018-5-28 15:58

Powered by Discuz! X3.2

© 2001-2013 Comsenz Inc.

快速回复 返回顶部 返回列表