BT探索

 找回密码
 注册
搜索
查看: 100|回复: 0

[华语] 金陵十三钗.The.Flowers.Of.War.2011.LIMITED.1080p.BluRay.x264-MELiTE.9.84 GB

[复制链接]

3万

主题

4万

帖子

11万

影币

管理员

Rank: 8Rank: 8Rank: 8Rank: 8Rank: 8Rank: 8Rank: 8Rank: 8

积分
116953
注册时间
2010-9-1
最后登录
2018-5-28

Medal No.1Medal No.2Medal No.3Medal No.4Medal No.5Medal No.6Medal No.7Medal No.8Medal No.9Medal No.10

发表于 2018-5-17 14:07:05 | 显示全部楼层 |阅读模式
海报


导演: 张艺谋
编剧: 刘恒 / 严歌苓
主演: 克里斯蒂安·贝尔 / 倪妮 / 张歆怡 / 黄天元 / 韩熙庭 / 张逗逗 / 佟大为 / 曹可凡 / 渡部笃郎 / 黄海波 / 窦骁 / 聂远 / 高虎 / 秦昊 / 李玥敏 / 白雪 / 袁杨纯子 / 孙佳 / 朱良奇 / 小林成男 / 山中崇 / 保罗·施耐德 / 李纯 / 顾璇 / 周梦乔 / 周羽 / 邓莉 / 苏小妹 / 钱柳吟 / 叶清源 Qingyuan Ye / 戴瑶君 / 沈俊然 / 李楚楚 / 金子欣 / 李瑞琦 / 谷艺璇 / 许佳丽 / 张照怡 / 王靖雯 / 谭逸敏 / 赵伊聪 / 来喜 / 奇道 / 王超北 / 王羽铮 / 李飞 / 王聪 / 项斌 / 郭晓明 / 涩谷天马 / 梶冈润一
类型: 剧情 / 历史 / 战争
制片国家/地区: 中国大陆 / 香港
语言: 汉语普通话 / 英语 / 日语 / 南京话 / 上海话
上映日期: 2011-12-15(中国大陆) / 2011-12-23(美国)
片长: 145分钟
又名: The Flowers Of War
IMDb链接: tt1410063
官方小站: 金陵十三钗

金陵十三钗的剧情简介 · · · · · ·
  1937年,日军入侵南京,战火中,六朝古都化为废墟,众多中国军民被困城中。一支十数人的国军德械教导队余部在长官李教官(佟大为 饰)指挥下,从日军手中救出了一批教会学校女学生,而李教官等人,至此丧失了出城的机会。幸免于难的书娟(张歆怡 饰)等学生返回文彻斯特教堂,随她们一 起来到的,还有受雇远道至此收敛神父遗体的美国人约翰·米勒(克里斯蒂安·贝尔 Christian Bale 饰)。此时的南京城中,逃难的人们蜂拥进安全区和教堂寻找庇护,十四名风尘女子强行进入教堂避难,其中精通英语的玉墨(倪妮 饰)希望借助约翰的身份为一行人提供更多保护。教堂的墙壁,并不能阻挡日军的铁蹄,教堂内的人们,将面临孰生孰死的选择……

金陵十三钗的获奖情况
第69届金球奖 电影类 最佳外语片(提名) 张艺谋
第31届香港电影金像奖 最佳两岸华语电影(提名)
第6届亚洲电影大奖 最佳电影(提名)

截图





Video
ID                                       : 1
Format                                   : AVC
Format/Info                              : Advanced Video Codec
Format profile                           : High@L4.1
Format settings, CABAC                   : Yes
Format settings, ReFrames                : 5 frames
Muxing mode                              : Header stripping
Codec ID                                 : V_MPEG4/ISO/AVC
Duration                                 : 2 h 25 min
Bit rate                                 : 9 009 kb/s
Width                                    : 1 920 pixels
Height                                   : 816 pixels
Display aspect ratio                     : 2.35:1
Frame rate mode                          : Constant
Frame rate                               : 24.000 FPS
Color space                              : YUV
Chroma subsampling                       : 4:2:0
Bit depth                                : 8 bits
Scan type                                : Progressive
Bits/(Pixel*Frame)                       : 0.240
Stream size                              : 8.99 GiB (91%)
Writing library                          : x264 core 124 r2197 69a0443
Encoding settings                        : cabac=1 / ref=5 / deblock=1:0:0 / analyse=0x3:0x113 / me=umh / subme=7 / psy=1 / psy_rd=1.00:0.00 / mixed_ref=1 / me_range=16 / chroma_me=1 / trellis=1 / 8x8dct=1 / cqm=0 / deadzone=21,11 / fast_pskip=0 / chroma_qp_offset=-2 / threads=12 / sliced_threads=0 / nr=0 / decimate=1 / interlaced=0 / bluray_compat=0 / constrained_intra=0 / bframes=3 / b_pyramid=2 / b_adapt=1 / b_bias=0 / direct=1 / weightb=1 / open_gop=0 / weightp=2 / keyint=250 / keyint_min=23 / scenecut=40 / intra_refresh=0 / rc_lookahead=40 / rc=2pass / mbtree=1 / bitrate=9009 / ratetol=1.0 / qcomp=0.60 / qpmin=0 / qpmax=69 / qpstep=4 / cplxblur=20.0 / qblur=0.5 / ip_ratio=1.40 / aq=1:1.00
Language                                 : English
Default                                  : Yes
Forced                                   : No

Audio
ID                                       : 2
Format                                   : AC-3
Format/Info                              : Audio Coding 3
Format settings, Endianness              : Big
Muxing mode                              : Header stripping
Codec ID                                 : A_AC3
Duration                                 : 2 h 25 min
Bit rate mode                            : Constant
Bit rate                                 : 640 kb/s
Channel(s)                               : 6 channels
Channel positions                        : Front: L C R, Side: L R, LFE
Sampling rate                            : 48.0 kHz
Frame rate                               : 31.250 FPS (1536 spf)
Bit depth                                : 16 bits
Compression mode                         : Lossy
Stream size                              : 668 MiB (7%)
Service kind                             : Complete Main
Default                                  : Yes
Forced                                   : No

Text
ID                                       : 3
Format                                   : UTF-8
Codec ID                                 : S_TEXT/UTF8
Codec ID/Info                            : UTF-8 Plain Text
Language                                 : English
Default                                  : Yes
Forced                                   : No



The.Flowers.Of.War.2011.LIMITED.1080p.BluRay.x264.torrent

98.91 KB, 下载次数: 41

电影交流QQ群: 498117193
您需要登录后才可以回帖 登录 | 注册

本版积分规则

小黑屋|手机版|BT探索

GMT+8, 2018-5-28 15:56

Powered by Discuz! X3.2

© 2001-2013 Comsenz Inc.

快速回复 返回顶部 返回列表