BT探索

 找回密码
 注册
查看: 325|回复: 0

[合拍] 末代皇帝.The.Last.Emperor.1987.Extended.Cut.1080p.BluRay.x264.DTS-FGT.26.73 GB

[复制链接]

3万

主题

4万

帖子

13万

影币

管理员

Rank: 8Rank: 8Rank: 8Rank: 8Rank: 8Rank: 8Rank: 8Rank: 8

积分
136978
注册时间
2010-9-1
最后登录
2018-10-24

Medal No.1Medal No.2Medal No.3Medal No.4Medal No.5Medal No.6Medal No.7Medal No.8Medal No.9Medal No.10

发表于 2018-5-17 14:16:24 | 显示全部楼层 |阅读模式
海报


导演: 贝纳尔多·贝托鲁奇
编剧: 贝纳尔多·贝托鲁奇 / 马克·派普罗
主演: 尊龙 / 陈冲 / 邬君梅 / 彼得·奥图尔 / 英若诚 / 吴涛 / 黄自强 / 丹尼斯·邓恩 / 坂本龙一 / 马吉·汉 / 里克·扬 / 田川洋行 / 苟杰德 / 理查德·吴 / 皱缇格 / 陈凯歌 / 卢燕 / 亨利·欧 / 陈述 / 樊光耀 / 鲍皓昕 / 黄文捷 / 邵茹贞 / 亨利·基 / 张良斌 / 梁冬 / 康斯坦丁·格雷戈里 / 黄汉琪 / 王涛 / 宋怀桂 / 蔡鸿翔 / 程淑艳 / 张天民
类型: 剧情 / 传记 / 历史
制片国家/地区: 意大利 / 中国大陆 / 英国 / 法国
语言: 英语 / 汉语普通话 / 日语 / 俄语
上映日期: 1987-10-04(东京国际电影节) / 1987-10-23(意大利)
片长: 163分钟 / 219分钟 (电视版)
又名: 末代皇帝溥仪(港)
IMDb链接: tt0093389

末代皇帝的剧情简介 · · · · · ·
  溥仪(尊龙 饰)的一生在电影中娓娓道来。他从三岁起登基,年幼的眼光中只有大臣身上的一只蝈蝈,江山在他心中只是一个不明所以的名词。长大了,他以为可以变革,却被太监一把烧了朝廷账本。他以为是大清江山的主人,却做了日本人的傀儡。
  解放后,他坐上了从俄国回来的火车,身边是押送监视他的解放军。他猜测自己难逃一死,便躲在狭小的卫生间里,割脉自杀。然而他没有死在火车上,命运的嘲笑还在等着他。文革的风风雨雨,在他身上留下了斑斑伤痕。

末代皇帝的获奖情况
第60届奥斯卡金像奖 最佳影片 杰瑞米·托马斯
第12届日本电影学院奖 最佳外语片
第7届中国电影金鸡奖 最佳道具(提名)

截图





Video
ID                                       : 1
Format                                   : AVC
Format/Info                              : Advanced Video Codec
Format profile                           : High@L4.1
Format settings, CABAC                   : Yes
Format settings, ReFrames                : 5 frames
Codec ID                                 : V_MPEG4/ISO/AVC
Duration                                 : 3h 38mn
Bit rate                                 : 16.0 Mbps
Width                                    : 1 920 pixels
Height                                   : 816 pixels
Display aspect ratio                     : 2.35:1
Frame rate mode                          : Constant
Frame rate                               : 23.976 (23976/1000) fps
Color space                              : YUV
Chroma subsampling                       : 4:2:0
Bit depth                                : 8 bits
Scan type                                : Progressive
Bits/(Pixel*Frame)                       : 0.426
Stream size                              : 23.9 GiB (89%)
Writing library                          : x264 core 148 r2744+55 950084e t_mod_Custom [8-bit@all X86_64]
Encoding settings                        : cabac=1 / ref=5 / deblock=1:-3:-3 / analyse=0x3:0x133 / me=umh / subme=10 / psy=1 / fade_compensate=0.00 / psy_rd=1.10:0.05 / mixed_ref=1 / me_range=32 / chroma_me=1 / trellis=2 / 8x8dct=1 / cqm=0 / deadzone=21,11 / fast_pskip=1 / chroma_qp_offset=-3 / threads=6 / lookahead_threads=1 / sliced_threads=0 / nr=0 / decimate=1 / interlaced=0 / bluray_compat=0 / constrained_intra=0 / fgo=0 / bframes=8 / b_pyramid=2 / b_adapt=2 / b_bias=0 / direct=3 / weightb=1 / open_gop=0 / weightp=2 / keyint=250 / keyint_min=23 / scenecut=40 / intra_refresh=0 / rc=2pass / mbtree=0 / bitrate=16000 / ratetol=1.0 / qcomp=0.60 / qpmin=0:0:0 / qpmax=69:69:69 / qpstep=4 / cplxblur=20.0 / qblur=0.5 / ip_ratio=1.30 / pb_ratio=1.20 / aq=3:0.65 / aq-sensitivity=10.00 / aq-factor=1.00:1.00:1.00 / aq2=0 / aq3=0
Language                                 : English
Default                                  : Yes
Forced                                   : No
Color range                              : Limited
Matrix coefficients                      : BT.709

Audio
ID                                       : 2
Format                                   : DTS
Format/Info                              : Digital Theater Systems
Mode                                     : 16
Format settings, Endianness              : Big
Codec ID                                 : A_DTS
Duration                                 : 3h 38mn
Bit rate mode                            : Constant
Bit rate                                 : 1 509 Kbps
Channel(s)                               : 6 channels
Channel positions                        : Front: L C R, Side: L R, LFE
Sampling rate                            : 48.0 KHz
Frame rate                               : 93.750 fps (512 spf)
Bit depth                                : 24 bits
Compression mode                         : Lossy
Stream size                              : 2.30 GiB (9%)
Language                                 : English
Default                                  : Yes
Forced                                   : No

Text
ID                                       : 3
Format                                   : UTF-8
Codec ID                                 : S_TEXT/UTF8
Codec ID/Info                            : UTF-8 Plain Text
Language                                 : English
Default                                  : Yes
Forced                                   : No

Menu
00:00:00.000                             : en:00:00:00.000
00:09:58.346                             : en:00:09:58.346
00:20:07.623                             : en:00:20:07.623
00:28:58.111                             : en:00:28:58.111
00:40:21.753                             : en:00:40:21.753
00:51:57.989                             : en:00:51:57.989
01:01:13.420                             : en:01:01:13.420
01:06:10.507                             : en:01:06:10.507
01:13:23.858                             : en:01:13:23.858
01:26:49.412                             : en:01:26:49.412
01:41:10.814                             : en:01:41:10.814
01:49:21.764                             : en:01:49:21.764
01:57:35.046                             : en:01:57:35.046
02:05:32.149                             : en:02:05:32.149
02:12:52.087                             : en:02:12:52.087
02:22:19.197                             : en:02:22:19.197
02:30:05.663                             : en:02:30:05.663
02:36:53.068                             : en:02:36:53.068
02:46:19.761                             : en:02:46:19.761
02:55:52.290                             : en:02:55:52.290
03:07:08.843                             : en:03:07:08.843
03:18:44.828                             : en:03:18:44.828
03:22:46.444                             : en:03:22:46.444
03:34:10.171                             : en:03:34:10.171



The.Last.Emperor.1987.Extended.Cut.1080p.BluRay.x264.DTS.torrent

67.47 KB, 下载次数: 49

QQ电影交流群: 498117193
您需要登录后才可以回帖 登录 | 注册

本版积分规则

BT探索  

GMT+8, 2018-10-24 09:44

Powered by Discuz! X3.2

© 2001-2013 Comsenz Inc.

快速回复 返回顶部 返回列表