BT探索

 找回密码
 注册
查看: 216|回复: 0

[欧美] 十诫.The.Ten.Commandments.1956.1080p.BluRay.X264-KaKa.16.38 GB

[复制链接]

3万

主题

4万

帖子

13万

影币

管理员

Rank: 8Rank: 8Rank: 8Rank: 8Rank: 8Rank: 8Rank: 8Rank: 8

积分
131029
注册时间
2010-9-1
最后登录
2018-8-18

Medal No.1Medal No.2Medal No.3Medal No.4Medal No.5Medal No.6Medal No.7Medal No.8Medal No.9Medal No.10

发表于 2018-5-17 14:21:25 | 显示全部楼层 |阅读模式
海报


导演: 塞西尔·B·戴米尔
编剧: Æneas MacKenzie / A.E. Southon / Dorothy Clarke Wilson
主演: 查尔登·海斯顿 / 尤·伯连纳 / 安妮·巴克斯特 / 爱德华·罗宾逊 / 伊冯娜·德·卡洛 / 黛博拉·佩吉特 / 约翰·德里克 / 塞德里克·哈德威克 / 尼娜·弗彻 / 玛莎·斯考特 / 朱迪丝·安德森 / 文森特·普莱斯 / 约翰·卡拉丁 / 奥利芙迪琳 / 道格拉斯·敦布里勒
类型: 剧情 / 历史 / 冒险
制片国家/地区: 美国
语言: 英语
上映日期: 1956-10-05(美国)
片长: 220分钟
IMDb链接: tt0049833

十诫的剧情简介 · · · · · ·
  电影《十诫》在影史上有着不可动摇地位,取材自《旧约圣经》的《出埃及记》,讲述了犹太先知摩西(查尔登·海斯顿饰)的一生。在经历各种苦难考验后,上帝耶和华将“十诫”授予摩西,并赐予力量于摩西。摩西领导饱受苦难的希伯来人出走埃及,穿越红海,重新建立新的生活。
  1956年 由派 拉蒙电影公司制作,由打造好莱坞黄金时代的导演塞西尔·B·戴米尔执导的史诗电影《十诫》,荣获1957年第29届奥斯卡金像奖最佳音效、最佳剪辑、最佳服装设计、最佳摄影、最佳艺术指导、最佳影片、及最佳特效等多项提名。本片被美国国家电影保护局列为征服收藏作品,是一部不可错过的影史经典之作。

十诫的获奖情况
第29届奥斯卡金像奖 最佳影片(提名) 塞西尔·B·戴米尔
第29届奥斯卡金像奖 彩色片最佳摄影(提名) 洛亚尔·格里格斯
第29届奥斯卡金像奖 最佳剪辑(提名) 安妮·鲍切恩斯

截图





Video
ID                                       : 1
Format                                   : AVC
Format/Info                              : Advanced Video Codec
Format profile                           : High@L4.1
Format settings, CABAC                   : Yes
Format settings, ReFrames                : 4 frames
Muxing mode                              : Header stripping
Codec ID                                 : V_MPEG4/ISO/AVC
Duration                                 : 3 h 51 min
Bit rate                                 : 8 620 kb/s
Width                                    : 1 920 pixels
Height                                   : 1 080 pixels
Display aspect ratio                     : 16:9
Frame rate mode                          : Constant
Frame rate                               : 23.976 (24000/1001) FPS
Color space                              : YUV
Chroma subsampling                       : 4:2:0
Bit depth                                : 8 bits
Scan type                                : Progressive
Bits/(Pixel*Frame)                       : 0.173
Stream size                              : 13.6 GiB (83%)
Writing library                          : x264 core 114 r1924 08d04a4
Encoding settings                        : cabac=1 / ref=4 / deblock=1:-1:-1 / analyse=0x3:0x113 / me=umh / subme=7 / psy=1 / psy_rd=1.00:0.00 / mixed_ref=1 / me_range=16 / chroma_me=1 / trellis=1 / 8x8dct=1 / cqm=0 / deadzone=21,11 / fast_pskip=1 / chroma_qp_offset=-2 / threads=12 / sliced_threads=0 / nr=0 / decimate=1 / interlaced=0 / constrained_intra=0 / bframes=3 / b_pyramid=2 / b_adapt=2 / b_bias=0 / direct=3 / weightb=1 / open_gop=0 / weightp=2 / keyint=250 / keyint_min=23 / scenecut=40 / intra_refresh=0 / rc_lookahead=40 / rc=2pass / mbtree=1 / bitrate=8620 / ratetol=1.0 / qcomp=0.60 / qpmin=0 / qpmax=69 / qpstep=4 / cplxblur=20.0 / qblur=0.5 / vbv_maxrate=50000 / vbv_bufsize=50000 / nal_hrd=none / ip_ratio=1.40 / aq=1:1.00
Language                                 : English
Default                                  : Yes
Forced                                   : Yes

Audio
ID                                       : 2
Format                                   : DTS
Format/Info                              : Digital Theater Systems
Mode                                     : 16
Format settings, Endianness              : Big
Muxing mode                              : Header stripping
Codec ID                                 : A_DTS
Duration                                 : 3 h 51 min
Bit rate mode                            : Constant
Bit rate                                 : 1 509 kb/s
Channel(s)                               : 6 channels
Channel positions                        : Front: L C R, Side: L R, LFE
Sampling rate                            : 48.0 kHz
Frame rate                               : 93.750 FPS (512 spf)
Bit depth                                : 24 bits
Compression mode                         : Lossy
Stream size                              : 2.44 GiB (15%)
Language                                 : English
Default                                  : Yes
Forced                                   : Yes


The.Ten.Commandments.1956.1080p.BluRay.X264.torrent

82.45 KB, 下载次数: 34

电影交流QQ群: 498117193
您需要登录后才可以回帖 登录 | 注册

本版积分规则

BT探索

GMT+8, 2018-8-19 18:14

Powered by Discuz! X3.2

© 2001-2013 Comsenz Inc.

快速回复 返回顶部 返回列表