请选择 进入手机版 | 继续访问电脑版

BT探索

 找回密码
 注册
搜索
查看: 563|回复: 0

[REMUX] 别走 Dont.Go.2018.1080p.BluRay.REMUX.AVC.DTS-HD.MA.5.1-25GB

[复制链接]

2428

主题

2469

帖子

2万

影币

导演

Rank: 8Rank: 8Rank: 8Rank: 8Rank: 8Rank: 8Rank: 8Rank: 8

积分
27806
注册时间
2018-4-23
最后登录
2019-5-26

Medal No.1Medal No.2Medal No.3Medal No.4Medal No.5Medal No.6Medal No.7

发表于 2019-3-14 19:21:40 | 显示全部楼层 |阅读模式

◎译  名 别走 / Don't Let Go
◎片  名 Don't Go
◎年  代 2018
◎产  地 爱尔兰
◎类  别 悬疑
◎语  言 英语
◎上映日期 2018-09-04(爱尔兰)
◎IMDb评分 5.1/10 from 613 users
◎IMDb链接 http://www.imdb.com/title/tt3339680
◎豆瓣评分 6.2/10 from 63 users
◎豆瓣链接 https://movie.douban.com/subject/30150138/
◎BT之家整理 http://bbs.homefei.me/
◎片  长 91分钟
◎导  演 大卫·格里森 David Gleeson
◎编  剧 罗南·布拉尼 Ronan Blaney / 大卫·格里森 David Gleeson
◎主  演 斯蒂芬·多尔夫 Stephen Dorff
      梅利莎·乔治 Melissa George
      西蒙·德兰尼 Simon Delaney
      加文·欧康诺  Gavin O'Connor
      莱勒·罗迪 Lalor Roddy
      肖恩·马洪 Sean Mahon
      Aoibhinn McGinnity
      Grace Farrel
      Des Cave
      Luke Griffin
      Charlotte Bradley
      Laurence O'Fuarain
      Sahar Ali
      Ella Connolly
      Grainne Coyne



◎简  介  

  梅利莎·乔治、斯蒂芬·多尔夫主演的[别走](Don't Go,暂译)柏林电影节曝光首款剧照。该片故事讲述本(斯蒂芬·多尔夫饰)的女儿在事故中去世,而他相信自己可以在梦里将女儿带回来。本从此陷入现实和虚幻交错的空间。

Video
ID : 1
Format : AVC
Format/Info : Advanced Video Codec
Format profile : High@L4.1
Format settings : CABAC / 4 Ref Frames
Format settings, CABAC : Yes
Format settings, ReFrames : 4 frames
Codec ID : V_MPEG4/ISO/AVC
Duration : 1 h 31 min
Bit rate mode : Variable
Bit rate : 31.2 Mb/s
Maximum bit rate : 36.0 Mb/s
Width : 1 920 pixels
Height : 1 080 pixels
Display aspect ratio : 16:9
Frame rate mode : Constant
Frame rate : 23.976 (24000/1001) FPS
Color space : YUV
Chroma subsampling : 4:2:0
Bit depth : 8 bits
Scan type : Progressive
Bits/(Pixel*Frame) : 0.628
Stream size : 20.0 GiB (80%)
Title : Dont.Go.2018.1080p.BluRay.REMUX.AVC.DTS-HD.MA.5.1-FGT
Language : English
Default : No
Forced : No

Audio #1
ID : 2
Format : DTS XLL
Format/Info : Digital Theater Systems
Commercial name : DTS-HD Master Audio
Codec ID : A_DTS
Duration : 1 h 31 min
Bit rate mode : Variable
Bit rate : 3 202 kb/s
Channel(s) : 6 channels
Channel layout : C L R Ls Rs LFE
Sampling rate : 48.0 kHz
Frame rate : 93.750 FPS (512 SPF)
Bit depth : 24 bits
Compression mode : Lossless
Stream size : 2.05 GiB (8%)
Title : Dont.Go.2018.1080p.BluRay.REMUX.AVC.DTS-HD.MA.5.1-FGT
Language : English
Default : Yes
Forced : No

Audio #2
ID : 3
Format : DTS
Format/Info : Digital Theater Systems
Codec ID : A_DTS
Duration : 1 h 31 min
Bit rate mode : Constant
Bit rate : 1 509 kb/s
Channel(s) : 6 channels
Channel layout : C L R Ls Rs LFE
Sampling rate : 48.0 kHz
Frame rate : 93.750 FPS (512 SPF)
Bit depth : 24 bits
Compression mode : Lossy
Stream size : 990 MiB (4%)
Title : Dont.Go.2018.1080p.BluRay.REMUX.AVC.DTS-HD.MA.5.1-FGT
Language : English
Default : No
Forced : No

Audio #3
ID : 4
Format : DTS XLL
Format/Info : Digital Theater Systems
Commercial name : DTS-HD Master Audio
Codec ID : A_DTS
Duration : 1 h 31 min
Bit rate mode : Variable
Bit rate : 1 640 kb/s
Channel(s) : 2 channels
Channel layout : L R
Sampling rate : 48.0 kHz
Frame rate : 93.750 FPS (512 SPF)
Bit depth : 24 bits
Compression mode : Lossless
Stream size : 1.05 GiB (4%)
Title : Dont.Go.2018.1080p.BluRay.REMUX.AVC.DTS-HD.MA.5.1-FGT
Language : English
Default : No
Forced : No

Audio #4
ID : 5
Format : DTS
Format/Info : Digital Theater Systems
Codec ID : A_DTS
Duration : 1 h 31 min
Bit rate mode : Constant
Bit rate : 1 509 kb/s
Channel(s) : 2 channels
Channel layout : L R
Sampling rate : 48.0 kHz
Frame rate : 93.750 FPS (512 SPF)
Bit depth : 24 bits
Compression mode : Lossy
Stream size : 990 MiB (4%)
Title : Dont.Go.2018.1080p.BluRay.REMUX.AVC.DTS-HD.MA.5.1-FGT
Language : English
Default : No
Forced : No

Text #1
ID : 6
Format : UTF-8
Codec ID : S_TEXT/UTF8
Codec ID/Info : UTF-8 Plain Text
Duration : 1 h 26 min
Bit rate : 37 b/s
Count of elements : 874
Stream size : 23.8 KiB (0%)
Title : English-SRT
Language : English
Default : Yes
Forced : No

Text #2
ID : 7
Format : UTF-8
Codec ID : S_TEXT/UTF8
Codec ID/Info : UTF-8 Plain Text
Duration : 1 h 30 min
Bit rate : 41 b/s
Count of elements : 1104
Stream size : 27.2 KiB (0%)
Title : English-SDH-SRT
Language : English
Default : No
Forced : No

Text #3
ID : 8
Format : PGS
Muxing mode : zlib
Codec ID : S_HDMV/PGS
Codec ID/Info : Picture based subtitle format used on BDs/HD-DVDs
Duration : 1 h 30 min
Bit rate : 25.4 kb/s
Count of elements : 1838
Stream size : 16.4 MiB (0%)
Title : English-PGS
Language : English
Default : No
Forced : No

Text #4
ID : 9
Format : PGS
Muxing mode : zlib
Codec ID : S_HDMV/PGS
Codec ID/Info : Picture based subtitle format used on BDs/HD-DVDs
Duration : 1 h 25 min
Bit rate : 25.0 kb/s
Count of elements : 1441
Stream size : 15.3 MiB (0%)
Title : Spanish-PGS
Language : Spanish
Default : No
Forced : No

Menu
00:00:00.000 : en:Chapter 01
00:06:00.943 : en:Chapter 02
00:12:03.097 : en:Chapter 03
00:18:12.091 : en:Chapter 04
00:25:02.667 : en:Chapter 05
00:32:26.986 : en:Chapter 06
00:39:51.722 : en:Chapter 07
00:47:36.478 : en:Chapter 08
00:55:33.246 : en:Chapter 09
01:03:38.105 : en:Chapter 10
01:11:01.799 : en:Chapter 11
01:19:24.384 : en:Chapter 12
01:31:44.373 : en:Chapter 13


Dont.Go.2018.1080p.BluRay.REMUX.AVC.DTS-HD.MA.5.1-homefei.torrent

63.18 KB, 下载次数: 14

您需要登录后才可以回帖 登录 | 注册

本版积分规则

手机版|电影下载

GMT+8, 2019-5-27 06:06

Powered by Discuz! X3.2

© 2001-2013 Comsenz Inc.

快速回复 返回顶部 返回列表