请选择 进入手机版 | 继续访问电脑版

BT探索

 找回密码
 注册
搜索
查看: 1221|回复: 1

[720p] 大杀特杀/终极杀戮 Big.Kill.2018.720p.BluRay.x264.DTS-4.46GB

[复制链接]

2428

主题

2469

帖子

2万

影币

导演

Rank: 8Rank: 8Rank: 8Rank: 8Rank: 8Rank: 8Rank: 8Rank: 8

积分
27806
注册时间
2018-4-23
最后登录
2019-5-26

Medal No.1Medal No.2Medal No.3Medal No.4Medal No.5Medal No.6Medal No.7

发表于 2019-3-14 19:23:34 | 显示全部楼层 |阅读模式


◎译  名 大杀特杀 / 终极杀戮
◎片  名 Big Kill
◎年  代 2018
◎产  地 美国
◎类  别 动作 / 西部
◎语  言 英语
◎IMDb评分 4.3/10 from 30 users
◎IMDb链接 http://www.imdb.com/title/tt7730102
◎BT之家整理 http://bbs.homefei.me/
◎导  演 Scott Martin
◎编  剧 Scott Martin
◎主  演 杰森·帕特里克 Jason Patric
      卢·戴蒙德·菲利普斯 Lou Diamond Phillips
      克里斯托夫·桑德斯 Christoph Sanders
      Scott Martin
      Clint Hummel
      K·C·克莱德 K.C. Clyde
      Stephanie Beran
      伊莎贝拉·麦克罗林 Elizabeth McLaughlin
      丹尼·特雷霍 Danny Trejo
      迈克尔·帕尔 Michael Paré
      奥德丽·沃尔特斯 Audrey Walters
      Jermaine Washington
      Dennis LaValle
      大卫·曼扎纳雷斯 David Manzanares
      萨拉·明妮奇 Sarah Minnich


◎简  介  

  A tenderfoot from Philadelphia| two misfit gamblers on the run| and a deadly preacher have a date with destiny in a boom town gone bust called Big Kill.

Video
ID : 1
Format : AVC
Format/Info : Advanced Video Codec
Format profile : High@L4.1
Format settings : CABAC / 12 Ref Frames
Format settings, CABAC : Yes
Format settings, ReFrames : 12 frames
Codec ID : V_MPEG4/ISO/AVC
Duration : 2 h 6 min
Bit rate : 3 536 kb/s
Width : 1 280 pixels
Height : 536 pixels
Display aspect ratio : 2.40:1
Frame rate mode : Constant
Frame rate : 23.976 (24000/1001) FPS
Color space : YUV
Chroma subsampling : 4:2:0
Bit depth : 8 bits
Scan type : Progressive
Bits/(Pixel*Frame) : 0.215
Stream size : 3.12 GiB (70%)
Writing library : x264 core 157 r2938 2b00a84 TnP@MTeam Mod
Encoding settings : cabac=1 / ref=12 / deblock=1:-3:-3 / analyse=0x3:0x133 / me=umh / subme=10 / psy=1 / psy_rd=1.05:0.00 / mixed_ref=1 / me_range=24 / chroma_me=1 / trellis=2 / 8x8dct=1 / cqm=0 / deadzone=21,11 / fast_pskip=0 / chroma_qp_offset=-2 / threads=12 / lookahead_threads=2 / sliced_threads=0 / nr=0 / decimate=0 / interlaced=0 / bluray_compat=0 / constrained_intra=0 / bframes=8 / b_pyramid=2 / b_adapt=2 / b_bias=0 / direct=3 / weightb=1 / open_gop=0 / weightp=2 / keyint=250 / keyint_min=24 / scenecut=40 / intra_refresh=0 / rc_lookahead=250 / rc=crf / mbtree=0 / crf=16.4 / qcomp=0.60 / qpmin=0 / qpmax=69 / qpstep=4 / vbv_maxrate=62500 / vbv_bufsize=78125 / crf_max=0.0 / nal_hrd=none / filler=0 / ip_ratio=1.30 / pb_ratio=1.20 / aq=3:0.80
Language : English
Default : Yes
Forced : No
Color range : Limited
Color primaries : BT.709
Matrix coefficients : BT.709

Audio
ID : 2
Format : DTS
Format/Info : Digital Theater Systems
Codec ID : A_DTS
Duration : 2 h 6 min
Bit rate mode : Constant
Bit rate : 1 509 kb/s
Channel(s) : 6 channels
Channel layout : C L R Ls Rs LFE
Sampling rate : 48.0 kHz
Frame rate : 93.750 FPS (512 SPF)
Bit depth : 24 bits
Compression mode : Lossy
Stream size : 1.33 GiB (30%)
Language : English
Default : Yes
Forced : No

Text #1
ID : 3
Format : UTF-8
Codec ID : S_TEXT/UTF8
Codec ID/Info : UTF-8 Plain Text
Duration : 2 h 1 min
Bit rate : 37 b/s
Count of elements : 1278
Stream size : 33.4 KiB (0%)
Language : English
Default : Yes
Forced : No

Text #2
ID : 4
Format : UTF-8
Codec ID : S_TEXT/UTF8
Codec ID/Info : UTF-8 Plain Text
Duration : 2 h 2 min
Bit rate : 38 b/s
Count of elements : 1347
Stream size : 34.7 KiB (0%)
Title : SDH
Language : English
Default : No
Forced : No

Menu
00:00:00.000 : en:Chapter 01
00:17:28.089 : en:Chapter 02
00:36:37.904 : en:Chapter 03
00:53:51.770 : en:Chapter 04
01:11:06.387 : en:Chapter 05
01:26:13.001 : en:Chapter 06
01:45:11.430 : en:Chapter 07
02:03:01.624 : en:Chapter 08


Big.Kill.2018.720p.BluRay.x264.torrent

45.17 KB, 下载次数: 52

0

主题

79

帖子

89

影币

影迷

Rank: 2Rank: 2

积分
89
注册时间
2019-3-30
最后登录
2019-5-24

Medal No.1

发表于 2019-3-30 18:12:10 | 显示全部楼层
感谢楼主的分享
您需要登录后才可以回帖 登录 | 注册

本版积分规则

手机版|电影下载

GMT+8, 2019-5-27 05:16

Powered by Discuz! X3.2

© 2001-2013 Comsenz Inc.

快速回复 返回顶部 返回列表