请选择 进入手机版 | 继续访问电脑版

BT探索

 找回密码
 注册
搜索
查看: 656|回复: 0

[REMUX] [剧情]阿普正传 Prefontaine.1997.1080p.BluRay.REMUX.AVC.DTS-HD.MA.5.1-20GB

[复制链接]

2428

主题

2469

帖子

2万

影币

导演

Rank: 8Rank: 8Rank: 8Rank: 8Rank: 8Rank: 8Rank: 8Rank: 8

积分
27806
注册时间
2018-4-23
最后登录
2019-5-26

Medal No.1Medal No.2Medal No.3Medal No.4Medal No.5Medal No.6Medal No.7

发表于 2019-3-14 19:31:42 | 显示全部楼层 |阅读模式


◎译  名 阿普正传
◎片  名 Prefontaine
◎年  代 1997
◎产  地 美国
◎类  别 剧情 / 传记 / 运动
◎语  言 英语
◎上映日期 1997-01-24
◎IMDb评分 6.8/10 from 6470 users
◎IMDb链接 http://www.imdb.com/title/tt0119937
◎豆瓣评分 7.7/10 from 83 users
◎豆瓣链接 https://movie.douban.com/subject/1306887/
◎BT之家整理 http://bbs.homefei.me/
◎片  长 106 分钟
◎导  演 斯蒂夫·詹姆斯 Steve James
◎编  剧 Eugene Corr / 斯蒂夫·詹姆斯 Steve James
◎主  演 杰瑞德·莱托 Jared Leto
      李·厄米 R. Lee Ermey
      艾德·奥尼尔 Ed O'Neill
      布瑞金·梅耶 Breckin Meyer
      林赛·克洛斯 Lindsay Crouse
      艾咪·洛肯 Amy Locane
      劳蕾尔·霍勒曼 Laurel Holloman
      Brian McGovern
      柯特伍德·史密斯 Kurtwood Smith
      Laurence Ballard



◎简  介  

  一位让长跑运动真正风靡美国的伟人!「史蒂夫·普利方坦」─阿普,让您见证一位超越阿甘的长跑英雄璀璨的一生。阿普(杰瑞德·莱托饰)出生于美国俄勒冈州,虽因身材矮小在众多体育竞赛中备受冷落,却在跑步运动里找回自信,之后并受到名教练比尔鲍曼(「耐吉」创办人之一)的赏识及培训,屡创多项美国长跑纪录,成为家喻户晓的英雄人物。1972年21岁的阿普代表美国参加慕尼黑奥运,却因故错失夺金良机。好强的阿普坚强的面对众人的眼光重新开始,蓄势待发准备迎向1976年蒙特利尔奥运。究竟阿普是否能洗刷前耻,勇夺他梦寐以求的奥运金牌呢?

Video
ID : 1
Format : AVC
Format/Info : Advanced Video Codec
Format profile : High@L4.1
Format settings : CABAC / 4 Ref Frames
Format settings, CABAC : Yes
Format settings, ReFrames : 4 frames
Codec ID : V_MPEG4/ISO/AVC
Duration : 1 h 46 min
Bit rate mode : Variable
Bit rate : 21.2 Mb/s
Maximum bit rate : 35.0 Mb/s
Width : 1 920 pixels
Height : 1 080 pixels
Display aspect ratio : 16:9
Frame rate mode : Constant
Frame rate : 23.976 (24000/1001) FPS
Color space : YUV
Chroma subsampling : 4:2:0
Bit depth : 8 bits
Scan type : Progressive
Bits/(Pixel*Frame) : 0.426
Stream size : 15.8 GiB (75%)
Title : Prefontaine.1997.1080p.BluRay.REMUX.AVC.DTS-HD.MA.5.1-FGT
Language : English
Default : No
Forced : No

Audio #1
ID : 2
Format : DTS XLL
Format/Info : Digital Theater Systems
Commercial name : DTS-HD Master Audio
Codec ID : A_DTS
Duration : 1 h 46 min
Bit rate mode : Variable
Bit rate : 2 150 kb/s
Channel(s) : 6 channels
Channel layout : C L R Ls Rs LFE
Sampling rate : 48.0 kHz
Frame rate : 93.750 FPS (512 SPF)
Bit depth : 16 bits
Compression mode : Lossless
Stream size : 1.60 GiB (8%)
Title : Prefontaine.1997.1080p.BluRay.REMUX.AVC.DTS-HD.MA.5.1-FGT
Language : English
Default : Yes
Forced : No

Audio #2
ID : 3
Format : DTS
Format/Info : Digital Theater Systems
Codec ID : A_DTS
Duration : 1 h 46 min
Bit rate mode : Constant
Bit rate : 1 509 kb/s
Channel(s) : 6 channels
Channel layout : C L R Ls Rs LFE
Sampling rate : 48.0 kHz
Frame rate : 93.750 FPS (512 SPF)
Bit depth : 16 bits
Compression mode : Lossy
Stream size : 1.12 GiB (5%)
Title : Prefontaine.1997.1080p.BluRay.REMUX.AVC.DTS-HD.MA.5.1-FGT
Language : English
Default : No
Forced : No

Audio #3
ID : 4
Format : DTS XLL
Format/Info : Digital Theater Systems
Commercial name : DTS-HD Master Audio
Codec ID : A_DTS
Duration : 1 h 46 min
Bit rate mode : Variable
Bit rate : 1 564 kb/s
Channel(s) : 2 channels
Channel layout : L R
Sampling rate : 48.0 kHz
Frame rate : 93.750 FPS (512 SPF)
Bit depth : 16 bits
Compression mode : Lossless
Stream size : 1.16 GiB (6%)
Title : Prefontaine.1997.1080p.BluRay.REMUX.AVC.DTS-HD.MA.5.1-FGT
Language : English
Default : No
Forced : No

Audio #4
ID : 5
Format : DTS
Format/Info : Digital Theater Systems
Codec ID : A_DTS
Duration : 1 h 46 min
Bit rate mode : Constant
Bit rate : 1 509 kb/s
Channel(s) : 2 channels
Channel layout : L R
Sampling rate : 48.0 kHz
Frame rate : 93.750 FPS (512 SPF)
Bit depth : 16 bits
Compression mode : Lossy
Stream size : 1.12 GiB (5%)
Title : Prefontaine.1997.1080p.BluRay.REMUX.AVC.DTS-HD.MA.5.1-FGT
Language : English
Default : No
Forced : No

Audio #5
ID : 6
Format : AC-3
Format/Info : Audio Coding 3
Commercial name : Dolby Digital
Codec ID : A_AC3
Duration : 1 h 46 min
Bit rate mode : Constant
Bit rate : 192 kb/s
Channel(s) : 2 channels
Channel layout : L R
Sampling rate : 48.0 kHz
Frame rate : 31.250 FPS (1536 SPF)
Bit depth : 16 bits
Compression mode : Lossy
Stream size : 146 MiB (1%)
Title : Prefontaine.1997.1080p.BluRay.REMUX.AVC.DTS-HD.MA.5.1-FGT
Language : English
Service kind : Complete Main
Default : No
Forced : No

Text
ID : 7
Format : PGS
Muxing mode : zlib
Codec ID : S_HDMV/PGS
Codec ID/Info : Picture based subtitle format used on BDs/HD-DVDs
Duration : 1 h 45 min
Bit rate : 28.3 kb/s
Count of elements : 2591
Stream size : 21.3 MiB (0%)
Title : English-PGS
Language : English
Default : Yes
Forced : No

Menu
00:00:00.000 : en:Chapter 00
00:10:00.933 : en:Chapter 01
00:21:39.923 : en:Chapter 02
00:33:18.913 : en:Chapter 03
00:48:53.472 : en:Chapter 04
01:08:28.229 : en:Chapter 05
01:21:08.321 : en:Chapter 06
01:34:15.858 : en:Chapter 07


Prefontaine.1997.1080p.BluRay.REMUX.AVC.DTS-HD.MA.5.1-homefei.torrent

52.86 KB, 下载次数: 14

您需要登录后才可以回帖 登录 | 注册

本版积分规则

手机版|电影下载

GMT+8, 2019-5-27 05:06

Powered by Discuz! X3.2

© 2001-2013 Comsenz Inc.

快速回复 返回顶部 返回列表