请选择 进入手机版 | 继续访问电脑版

BT探索

 找回密码
 注册
搜索
查看: 720|回复: 1

[1080p] [剧情]树/树上的父亲 The.Tree.2010.1080p.BluRay.x264-7.95GB

[复制链接]

2428

主题

2469

帖子

2万

影币

导演

Rank: 8Rank: 8Rank: 8Rank: 8Rank: 8Rank: 8Rank: 8Rank: 8

积分
27806
注册时间
2018-4-23
最后登录
2019-5-26

Medal No.1Medal No.2Medal No.3Medal No.4Medal No.5Medal No.6Medal No.7

发表于 2019-3-14 19:38:18 | 显示全部楼层 |阅读模式


◎译  名 树 / 树上的父亲(台) / 树欲静而心不息(港)
◎片  名 The Tree
◎年  代 2010
◎产  地 法国 / 澳大利亚
◎类  别 剧情
◎语  言 英语
◎上映日期 2010-08-11(法国)
◎IMDb评分 6.6/10 from 4169 users
◎IMDb链接 http://www.imdb.com/title/tt1496005
◎豆瓣评分 7.4/10 from 2218 users
◎豆瓣链接 https://movie.douban.com/subject/3990145/
◎BT之家整理 http://bbs.homefei.me/
◎片  长 100分钟
◎导  演 Julie Bertucelli
◎编  剧 Judy Pascoe / Julie Bertucelli / Elizabeth J. Mars
◎主  演 夏洛特·甘斯布 Charlotte Gainsbourg
      马尔顿·索克斯 Marton Csokas
      阿登·杨 Aden Young
      汤姆·拉塞尔
      克里斯蒂安·拜尔斯 Christian Byers
      Penne Hackforth-Jones
      Arthur Dignam
      Gillian Jones
      摩根·戴维斯 Morgana Davies


◎标  签 澳大利亚 | 法国 | 亲情 | 法国电影 | CharlotteGainsbourg | 2010 | 剧情 | 澳大利亚电影

◎简  介  

  丈夫彼得(阿登·杨 Aden Young 饰)的死让道恩(夏洛特·甘斯布 Charlotte Gainsbourg 饰)伤心欲绝,就在此时,道恩的小女儿西蒙娜(摩根·戴维斯 Morgana Davies 饰)却告诉她,彼得的灵魂栖息在院子里的一颗巨大的榕树之上,正默默的守护着整个家庭。靠着榕树的支撑,道恩渐渐从永失我爱的痛苦和悲伤中走了出来,优秀青年乔治(马尔顿·索克斯 Marton Csokas 饰)的出现更是让道恩重新感受到了被爱和被关怀的快乐。
没想到,道恩和乔治之间的感情遭到了女儿的强烈反对,西蒙娜无法相信除了父亲外,母亲竟然还能爱上别的男人。同时,院子里的榕树似乎对道恩身上所发生的事情了如指掌,它竟然也开始用它自己的方法干预起了道恩的生活。

Video
ID : 1
Format : AVC
Format/Info : Advanced Video Codec
Format profile : High@L4.1
Format settings : CABAC / 5 Ref Frames
Format settings, CABAC : Yes
Format settings, ReFrames : 5 frames
Codec ID : V_MPEG4/ISO/AVC
Duration : 1 h 40 min
Bit rate : 9 764 kb/s
Width : 1 920 pixels
Height : 816 pixels
Display aspect ratio : 2.35:1
Frame rate mode : Constant
Frame rate : 23.976 (24000/1001) FPS
Color space : YUV
Chroma subsampling : 4:2:0
Bit depth : 8 bits
Scan type : Progressive
Bits/(Pixel*Frame) : 0.260
Stream size : 6.72 GiB (85%)
Writing library : x264 core 110 r1820 fdcf2ae
Encoding settings : cabac=1 / ref=5 / deblock=1:0:0 / analyse=0x3:0x113 / me=umh / subme=7 / psy=1 / psy_rd=1.00:0.00 / mixed_ref=1 / me_range=16 / chroma_me=1 / trellis=1 / 8x8dct=1 / cqm=0 / deadzone=21,11 / fast_pskip=0 / chroma_qp_offset=-2 / threads=12 / sliced_threads=0 / nr=0 / decimate=1 / interlaced=0 / constrained_intra=0 / bframes=3 / b_pyramid=2 / b_adapt=1 / b_bias=0 / direct=1 / weightb=1 / open_gop=0 / weightp=2 / keyint=250 / keyint_min=23 / scenecut=40 / intra_refresh=0 / rc_lookahead=40 / rc=2pass / mbtree=1 / bitrate=9764 / ratetol=1.0 / qcomp=0.60 / qpmin=0 / qpmax=51 / qpstep=4 / cplxblur=20.0 / qblur=0.5 / ip_ratio=1.40 / aq=1:1.00
Language : English
Default : Yes
Forced : No

Audio
ID : 2
Format : DTS
Format/Info : Digital Theater Systems
Codec ID : A_DTS
Duration : 1 h 40 min
Bit rate mode : Constant
Bit rate : 1 509 kb/s
Channel(s) : 6 channels
Channel positions : Front: L C R, Side: L R, LFE
Sampling rate : 48.0 kHz
Frame rate : 93.750 FPS (512 SPF)
Bit depth : 24 bits
Compression mode : Lossy
Stream size : 1.06 GiB (13%)
Language : English
Default : Yes
Forced : No


The.Tree.2010.1080p.BluRay.x264.torrent

79.97 KB, 下载次数: 18

0

主题

1282

帖子

1191

影币

主角

Rank: 6Rank: 6Rank: 6Rank: 6Rank: 6Rank: 6

积分
1191
注册时间
2011-8-25
最后登录
2019-5-25

Medal No.1Medal No.2Medal No.3Medal No.4Medal No.5Medal No.6

发表于 2019-3-16 17:19:14 | 显示全部楼层
看介绍应该很感人
您需要登录后才可以回帖 登录 | 注册

本版积分规则

手机版|电影下载

GMT+8, 2019-5-27 05:18

Powered by Discuz! X3.2

© 2001-2013 Comsenz Inc.

快速回复 返回顶部 返回列表